Статистика раздачи
Размер:  1001 MB   |    Зарегистрирован:  2 года   |    .torrent скачан:  96 раз   |   

Пиры будут получены при скачивании

 

Скачать порно Superstitions / Superstition / Supersticion / Суеверия через торрент бесплатно :: UnionPron.org

 
 
Автор Сообщение

Sakura

avatar Sakura


Superstitions | Superstition | Supersticion | Суеверия

[url=...1287695] [/url]
Год производства: 1999 г.
Страна: Italy | Италия || USA | США
Жанр: Feature
Продолжительность: 01:31:20
Язык: Английский | English

Режиссер: [url=...1696140]Anita Rinaldi[/url]
Студия: Vivid

В ролях:
Actresses
[url=...1696140]Anita Rinaldi[/url] [MastOnly]
[url=...1974838]Lolita Angel (as Barbie)[/url] [Facial]
Judy Flash (as Daniella) [Anal Facial DP]
[url=...1117327]Linda Kiss (as Genevieve)[/url] [Anal DP]
[url=...1065007]Kate More[/url] [Facial]
[url=...1287695]Laura Angel[/url] [Anal Facial]
Lilly T. (as Lillyt) [Anal Facial]

Actors
Alberto Rey
Andrew Youngman
Csoky
David Perry
Leslie Taylor
Mike Foster
Michael Chapman (as Mike Lovechild)
Nick Lang
Remigio Zampa

Описание: Данный фильм о суевериях: чёрная кошка, просыпанная соль, разбитое зеркало и т.д., всё это повсеместно в нашей жизни и присутствует в фильме, а верить в приметы или нет это уже ваше дело.
P.S. Но фильм посмотреть стоит.

Scene Breakdowns:
Scene 1. [url=...1696140]Anita Rinaldi[/url]
Scene 2. [url=...1287695]Laura Angel[/url], Mike Foster
Scene 3. [url=...1287695]Laura Angel[/url], Leslie Taylor
Scene 4. [url=...1117327]Linda Kiss[/url], Lilly T., Andrew Youngman
Scene 5. Judy Flash, David Perry, Leslie Taylor
Scene 6. [url=...1974838]Lolita Angel[/url], [url=...1117327]Linda Kiss[/url], Alberto Rey, Csoky, David Perry
Scene 7. [url=...1065007]Kate More[/url], Nick Lang
General
Format : AVI
Format/Info : Audio Video Interleave
File size : 1 000 MiB
Duration : 1h 31mn
Overall bit rate : 1 531 Kbps
Writing application : VirtualDubMod 1.5.4.1 (build 2178/release)
Writing library : VirtualDubMod build 2178/release
Video
Format : MPEG-4 Visual
Format profile : Simple@L3
Format settings, BVOP : Yes
Format settings, QPel : No
Format settings, GMC : No warppoints
Format settings, Matrix : Custom
Codec ID : XVID
Codec ID/Hint : XviD
Duration : 1h 31mn
Bit rate : 1 331 Kbps
Width : 512 pixels
Height : 384 pixels
Display aspect ratio : 4/3
Frame rate : 29.970 fps
Resolution : 24 bits
Colorimetry : 4:2:0
Scan type : Progressive
Bits/(Pixel*Frame) : 0.226
Stream size : 870 MiB (87%)
Writing library : XviD 1.0.3 (UTC 2004-12-20)
Audio
Format : AC-3
Format/Info : Audio Coding 3
Codec ID : 2000
Duration : 1h 31mn
Bit rate mode : Constant
Bit rate : 192 Kbps
Channel(s) : 2 channels
Channel positions : L R
Sampling rate : 48.0 KHz
Stream size : 125 MiB (13%)
Alignment : Split accross interleaves
Interleave, duration : 96 ms (2.88 video frames)
Interleave, preload duration : 96 ms
Качество видео: DVDRip
Формат видео: AVI
Видео: MPEG4, XviD, 512x384 (4:3), 29.970 fps, 1 331 Kbps (0.226 bit/pixel)
Аудио: AC-3, 48.0 KHz, 2 ch, 192 Kbps, CBR
[url=...1005445]Superstitions (676 MB)[/url]НАГРАДЫ
•AVN Awards, 2000 - Nominee: Best Foreign Feature
Трекер:  [ 06-Июн-2015 14:30 ]

Размер .torrent файла 20 KB


Размер: 1001 MB
Хэш (hash) релиза: 9172e1e447060d05918dc52f928a3f855293f0de
Подписка на обновления:

Еще никто не оставлял запись к записи скачать торрент Superstitions Superstition . Будь первым!

!Обратная связь
//main.js show_panel