Статистика раздачи
Размер:  1.37 GB   |    Зарегистрирован:  2 года 4 месяца   |    .torrent скачан:  103 раза   |   

Пиры будут получены при скачивании

 

Скачать порно Pirati / I Predatori della verginita perduta / Raiders / La Virginite perdue / Искатели Потерянной Девственности через торрент бесплатно :: UnionPron.org

 
 
Автор Сообщение

Sakura

avatar Sakura


Pirati | I Predatori della verginita perduta | Raiders | La Virginite perdue
Eliana - Schön und hemmungslos | Искатели Потерянной Девственности

Год производства: 1998 г.
Страна: Италия | Italy
Жанр: Feature
Продолжительность: 01:32:31
Язык: Чешский | Czech

Режиссер: Joe D'Amato
Студия: International Film Grup

В ролях:
Judytha Bella (as Judith Weller)
[url=...1076208]Anita Blond[/url]
Chris Charming
Horst Kallinger
Sdena Locowa (as Yvette)
Nelly
Zensa Raggi (as Zenza Raggi)
Bruno Sx
John Walton (as Djolth Walton)
Leslie White
Remigio Zampa (as Remigio)

Описание: A man gets kidnapped by pirates and his loving daughter gives her virginity to a pirate to go save him.

Качество видео: DVDRip
Формат видео: MP4
Видео: AVC, 704x528 (4:3), 25.000 fps, 1 996 Kbps (0.215 bit/pixel)
Аудио: AAC LC, 48.0 KHz, 2 ch, 125 Kbps, VBR

[url=...1017608]I Predatori della verginita perduta (817 MB) [ita][/url]
General
Format : MPEG-4
Format profile : Base Media / Version 2
Codec ID : mp42
File size : 1.37 GiB
Duration : 1h 32mn
Overall bit rate : 2 125 Kbps
Writing application : TMPGEnc Video Mastering Works 5 Version. 5.5.2.107
Video #2
ID : 2
Format : AVC
Format/Info : Advanced Video Codec
Format profile : High@L3.1
Format settings, CABAC : Yes
Format settings, ReFrames : 2 frames
Codec ID : avc1
Codec ID/Info : Advanced Video Coding
Duration : 1h 32mn
Bit rate mode : Variable
Bit rate : 1 996 Kbps
Width : 704 pixels
Height : 528 pixels
Display aspect ratio : 4/3
Frame rate mode : Constant
Frame rate : 25.000 fps
Resolution : 24 bits
Colorimetry : 4:2:0
Scan type : Progressive
Bits/(Pixel*Frame) : 0.215
Stream size : 1.29 GiB (94%)
Audio #1
ID : 1
Format : AAC
Format/Info : Advanced Audio Codec
Format version : Version 4
Format profile : LC
Format settings, SBR : No
Codec ID : 40
Duration : 1h 32mn
Bit rate mode : Variable
Bit rate : 125 Kbps
Maximum bit rate : 576 Kbps
Channel(s) : 2 channels
Channel positions : L R
Sampling rate : 48.0 KHz
Resolution : 16 bits
Stream size : 83.0 MiB (6%)
Трекер:  [ 01-Июн-2015 23:00 ]

Размер .torrent файла 14 KB


Размер: 1.37 GB
Хэш (hash) релиза: 1ee08172342ea4444edcc22bad1fca1e044a35de
Подписка на обновления:

Еще никто не оставлял запись к записи скачать торрент Pirati I Predatori della verginita perduta . Будь первым!

!Обратная связь
//main.js show_panel