Статистика раздачи
Размер:  90 MB   |    Зарегистрирован:  1 год 9 месяцев   |    .torrent скачан:  397 раз   |   

Пиры будут получены при скачивании

 

Скачать порно Любимая супруга Маша через торрент бесплатно :: UnionPron.org

 
 
Автор Сообщение

Sakura

avatar Sakura


Любимая супруга Маша

Год производства: 2014 г.
Жанр: All sex, Big tits, Blowjob, Masturbation
Продолжительность: 00:03:11 + 00:01:10 + 00:01:27

Описание: Семейная история о том, как муж имеет свою любимую женушку Машку

Качество видео: CamRip
Формат видео: MP4
Полное имя : Любимая жена Маша_1.mp4
Формат : MPEG-4
Профиль формата : Base Media
Идентификатор кодека : isom
Размер файла : 18,2 Мбайт
Продолжительность : 1 м. 10 с.
Режим общего битрейта : Переменный
Общий поток : 2154 Кбит/сек

Видео
Идентификатор : 1
Формат : AVC
Формат/Информация : Advanced Video Codec
Профиль формата : High@L3
Параметр CABAC формата : Нет
Параметр ReFrames формата : 1 кадр
Идентификатор кодека : avc1
Идентификатор кодека/Информация : Advanced Video Coding
Продолжительность : 1 м. 10 с.
Битрейт : 2048 Кбит/сек
Максимальный битрейт : 2779 Кбит/сек
Ширина : 408 пикселей
Высота : 720 пикселей
Соотношение сторон : 0,563
Режим частоты кадров : Постоянный
Частота кадров : 30,000 кадров/сек
Цветовое пространство : YUV
Субдискретизация насыщенности : 4:2:0
Битовая глубина : 8 бит
Тип развёртки : Прогрессивная
Бит/(Пиксели*Кадры) : 0.232
Размер потока : 17,1 Мбайт (94%)

Аудио
Идентификатор : 2
Формат : AAC
Формат/Информация : Advanced Audio Codec
Профиль формата : LC
Идентификатор кодека : 40
Продолжительность : 1 м. 10 с.
Вид битрейта : Переменный
Битрейт : 126 Кбит/сек
Максимальный битрейт : 140 Кбит/сек
Каналы : 2 канала
Расположение каналов : Front: L R
Частота : 44,1 КГц
Метод сжатия : С потерями
Размер потока : 1,06 Мбайт (6%)

Общее
Полное имя : Любимая Жена Маша_2.mp4
Формат : MPEG-4
Профиль формата : Base Media
Идентификатор кодека : isom
Размер файла : 48,9 Мбайт
Продолжительность : 3 м. 11 с.
Режим общего битрейта : Переменный
Общий поток : 2145 Кбит/сек

Видео
Идентификатор : 1
Формат : AVC
Формат/Информация : Advanced Video Codec
Профиль формата : High@L3
Параметр CABAC формата : Нет
Параметр ReFrames формата : 1 кадр
Идентификатор кодека : avc1
Идентификатор кодека/Информация : Advanced Video Coding
Продолжительность : 3 м. 10 с.
Битрейт : 2048 Кбит/сек
Максимальный битрейт : 2974 Кбит/сек
Ширина : 1280 пикселей
Высота : 720 пикселей
Соотношение сторон : 16:9
Режим частоты кадров : Постоянный
Частота кадров : 30,000 кадров/сек
Цветовое пространство : YUV
Субдискретизация насыщенности : 4:2:0
Битовая глубина : 8 бит
Тип развёртки : Прогрессивная
Бит/(Пиксели*Кадры) : 0.074
Размер потока : 45,9 Мбайт (94%)

Аудио
Идентификатор : 2
Формат : AAC
Формат/Информация : Advanced Audio Codec
Профиль формата : LC
Идентификатор кодека : 40
Продолжительность : 3 м. 11 с.
Вид битрейта : Переменный
Битрейт : 126 Кбит/сек
Максимальный битрейт : 151 Кбит/сек
Каналы : 2 канала
Расположение каналов : Front: L R
Частота : 44,1 КГц
Метод сжатия : С потерями
Размер потока : 2,86 Мбайт (6%)
Дата кодирования : UTC 2015-05-30 21:10:32
Дата пометки : UTC 2015-05-30 21:10:32

Общее
Полное имя : Любимая Жена Маша_3.mp4
Формат : MPEG-4
Профиль формата : Base Media
Идентификатор кодека : isom
Размер файла : 22,7 Мбайт
Продолжительность : 1 м. 27 с.
Режим общего битрейта : Переменный
Общий поток : 2174 Кбит/сек

Видео
Идентификатор : 1
Формат : AVC
Формат/Информация : Advanced Video Codec
Профиль формата : High@L3
Параметр CABAC формата : Нет
Параметр ReFrames формата : 1 кадр
Идентификатор кодека : avc1
Идентификатор кодека/Информация : Advanced Video Coding
Продолжительность : 1 м. 27 с.
Битрейт : 2048 Кбит/сек
Максимальный битрейт : 2662 Кбит/сек
Ширина : 1280 пикселей
Высота : 720 пикселей
Соотношение сторон : 16:9
Режим частоты кадров : Постоянный
Частота кадров : 30,000 кадров/сек
Цветовое пространство : YUV
Субдискретизация насыщенности : 4:2:0
Битовая глубина : 8 бит
Тип развёртки : Прогрессивная
Бит/(Пиксели*Кадры) : 0.074
Размер потока : 21,4 Мбайт (94%)

Аудио
Идентификатор : 2
Формат : AAC
Формат/Информация : Advanced Audio Codec
Профиль формата : LC
Идентификатор кодека : 40
Продолжительность : 1 м. 27 с.
Вид битрейта : Переменный
Битрейт : 126 Кбит/сек
Максимальный битрейт : 157 Кбит/сек
Каналы : 2 канала
Расположение каналов : Front: L R
Частота : 44,1 КГц
Метод сжатия : С потерями
Размер потока : 1,31 Мбайт (6%)
Дата кодирования : UTC 2015-05-30 21:11:06
Дата пометки : UTC 2015-05-30 21:11:06



[url=http://Запрещенный хостинг/1202/272085/] [/url] [url=http://Запрещенный хостинг/1202/272086/] [/url] [url=http://Запрещенный хостинг/1202/272087/] [/url]
Трекер:  [ 30-Май-2015 23:00 ]

Размер .torrent файла 14 KB


Размер: 90 MB
Хэш (hash) релиза: 2be24ff194bb3f4af97d014d90c14ec760fb9a63
Подписка на обновления:

Еще никто не оставлял запись к записи скачать торрент Любимая супруга Маша . Будь первым!

!Обратная связь
//main.js show_panel