Статистика раздачи
Размер:  701 MB   |    Зарегистрирован:  1 год 7 месяцев   |    .torrent скачан:  162 раза   |   

Пиры будут получены при скачивании

 

Скачать порно Sex-Ausflug der 13a: Teenies Allein Im Wald / Секс-поход 13А через торрент бесплатно :: UnionPron.org

 
 
Автор Сообщение

Sakura

avatar Sakura


Sex-Ausflug der 13a: Teenies Allein Im Wald / Секс-поход 13А

Год производства: 2002 г.
Страна: Germany | Германия
Жанр: Feature
Продолжительность: 01:24:25
Язык: Немецкий | German

Режиссер: Moli
Студия: Magma

В ролях: Alina Grey as Kornelia, Helga, Christina Dark as Krisztina, [url=...1203944]Dorothy Black as Dora[/url], [url=...1444473]Greta Milos as Eva[/url], [url=...1117327]Linda Lingua as Linda[/url], Nelly as Gyöngy, Linda, Ferenc, Lazslo, Atilla, Zolt

Описание: Скучновато живется в небольшом провинциальном городке мужикам. По-настоящему налево не сходить, потому что все друг друга знают, везде глаза и уши. Тоска зеленая... Но не все так плохо. В окрестностях находится молодежный лагерь, куда во время каникул приезжают студентки и старшеклассницы. Та-акие телки!... Главное, что они сами как с цепи срываются, когда оказываются на свободе. Итак, новый сезон начинается. Мужское население города - на низком старте...

Качество видео: DVDRip
Формат видео: AVI
Видео: MPEG4, XviD, 640x480 (4:3), 25.000 fps, 978 Kbps (0.127 bit/pixel)
Аудио: MP3, 48.0 KHz, 2 ch, 168 Kbps, VBR

[url=...1909594]Sex-Ausflug der 13a (1.3 GB) [rus][/url]
[url=...471754]Sex-Ausflug der 13a (631 MB) [rus][/url]
General
Format : AVI
Format/Info : Audio Video Interleave
File size : 700 MiB
Duration : 1h 24mn
Overall bit rate : 1 159 Kbps
Writing application : VirtualDubMod 1.5.4.1 (build 2178/release)
Writing library : VirtualDubMod build 2178/release
Video
Format : MPEG-4 Visual
Format profile : Streaming Video@L1
Format settings, BVOP : Yes
Format settings, QPel : No
Format settings, GMC : No warppoints
Format settings, Matrix : Custom
Codec ID : XVID
Codec ID/Hint : XviD
Duration : 1h 24mn
Bit rate : 978 Kbps
Width : 640 pixels
Height : 480 pixels
Display aspect ratio : 4/3
Frame rate : 25.000 fps
Resolution : 24 bits
Colorimetry : 4:2:0
Scan type : Progressive
Bits/(Pixel*Frame) : 0.127
Stream size : 590 MiB (84%)
Writing library : XviD 64
Audio
Format : MPEG Audio
Format version : Version 1
Format profile : Layer 3
Codec ID : 55
Codec ID/Hint : MP3
Duration : 1h 24mn
Bit rate mode : Variable
Bit rate : 168 Kbps
Nominal bit rate : 192 Kbps
Channel(s) : 2 channels
Sampling rate : 48.0 KHz
Resolution : 16 bits
Stream size : 102 MiB (15%)
Alignment : Aligned on interleaves
Interleave, duration : 24 ms (0.60 video frame)
Interleave, preload duration : 566 ms
Writing library : LAME3.98r
Encoding settings : -m j -V 4 -q 2 -lowpass 18.6 --abr 192
Трекер:  [ 27-Май-2015 21:30 ]

Размер .torrent файла 14 KB


Размер: 701 MB
Хэш (hash) релиза: 8ccbcb3a94dbe3dd6f6ffb494bc56baa983c9247
Подписка на обновления:

Еще никто не оставлял запись к записи скачать торрент Sex-Ausflug der 13a: Teenies Allein Im Wald Секс-поход 13А . Будь первым!

!Обратная связь
//main.js show_panel