Статистика раздачи
Размер:  1.05 GB   |    Зарегистрирован:  1 год 7 месяцев   |    .torrent скачан:  155 раз   |   

Пиры будут получены при скачивании

 

Скачать порно Happening / Случай через торрент бесплатно :: UnionPron.org

 
 
Автор Сообщение

Sakura

avatar Sakura


Happening / Случай

Год производства: 1983 г.
Страна: Germany
Жанр: Classic
Продолжительность: 1:17:35
Язык: Немецкий

Режиссер: Alan Vydra
В ролях: Richard Allan, Jean-Pierre Armand, Dominique Aveline, Caroline Grace

Описание: Carolyn Grace has an older husband who insists she wear very old-fashioned night clothes and is obviously unexciting in bed. She has lots of fantasies, triggered by chance events and encounters.

Качество видео: DVDRip
Формат видео: MKV
Видео: MPEG4 Video (H264) 768x432 1636 Kbps
Аудио: MP3 48000Hz stereo 256kbps
General
Unique ID : 253478241950467321870076538299080691464 (0xBEB2223661CC1DA2E573975857E2CF08)
Complete name : F:\Happening.mkv
Format : Matroska
Format version : Version 2
File size : 1.05 GiB
Duration : 1h 17mn
Overall bit rate : 1 931 Kbps
Writing application : Lavf54.63.104
Writing library : Lavf54.63.104

Video
ID : 1
Format : AVC
Format/Info : Advanced Video Codec
Format profile : High@L4.1
Format settings, CABAC : Yes
Format settings, ReFrames : 3 frames
Codec ID : V_MPEG4/ISO/AVC
Duration : 1h 17mn
Bit rate : 1 636 Kbps
Width : 768 pixels
Height : 432 pixels
Display aspect ratio : 16:9
Frame rate mode : Constant
Frame rate : 47.952 fps
Color space : YUV
Chroma subsampling : 4:2:0
Bit depth : 8 bits
Scan type : Progressive
Bits/(Pixel*Frame) : 0.103
Stream size : 908 MiB (85%)
Writing library : x264 core 142 r2431 ac76440
Encoding settings : cabac=1 / ref=4 / deblock=1:0:0 / analyse=0x3:0x113 / me=umh / subme=8 / psy=1 / psy_rd=1.00:0.00 / mixed_ref=1 / me_range=16 / chroma_me=1 / trellis=1 / 8x8dct=1 / cqm=0 / deadzone=21,11 / fast_pskip=1 / chroma_qp_offset=-2 / threads=12 / lookahead_threads=2 / sliced_threads=0 / slices=4 / nr=0 / decimate=1 / interlaced=0 / bluray_compat=0 / constrained_intra=0 / bframes=3 / b_pyramid=1 / b_adapt=2 / b_bias=0 / direct=3 / weightb=1 / open_gop=0 / weightp=2 / keyint=46 / keyint_min=3 / scenecut=40 / intra_refresh=0 / rc_lookahead=46 / rc=crf / mbtree=1 / crf=19.5 / qcomp=0.60 / qpmin=10 / qpmax=51 / qpstep=4 / vbv_maxrate=40000 / vbv_bufsize=30000 / crf_max=0.0 / nal_hrd=none / filler=0 / ip_ratio=1.40 / aq=1:1.00
Default : Yes
Forced : No

Audio
ID : 2
Format : MPEG Audio
Format version : Version 1
Format profile : Layer 3
Codec ID : A_MPEG/L3
Codec ID/Hint : MP3
Duration : 1h 17mn
Bit rate mode : Constant
Bit rate : 256 Kbps
Channel(s) : 2 channels
Sampling rate : 48.0 KHz
Compression mode : Lossy
Delay relative to video : 7ms
Stream size : 142 MiB (13%)
Language : unknown
Default : Yes
Forced : No
Трекер:  [ 24-Май-2015 15:30 ]

Размер .torrent файла 11 KB


Размер: 1.05 GB
Хэш (hash) релиза: 0e85f20acdc1c534448cdbf8365d68c0467c89c3
Подписка на обновления:

Торренты, похожие на Happening Случай скачать торрент

Форум Название Автор Размер S L Добавлен
Фильмы с сюжетом (HD Video) / Feature & Vignettes (HD Video) ·· Happening / Случай (Alan Vydra / Алан Выдра) [1983, West Germany, Feature, Classiс, Blu-Ray Disc 1080p][ger] Sakura 2061099465119.2 GB 0 0 1422784952

14:02

1-Фев-15

Хентай: основной подраздел / Hentai: main subsection ·· Mankitsu Happening / Почему-то случается (Matano Ryuuzou, Collaboration Works) (ep. 1-2 of 2) [cen] [2015 г. Virgin, Big tits, Oral sex, Paizuri, Anal sex, Group sex, Ahegao, X-Ray, DVDRip] [jap / eng / rus] Sakura 610679092582 MB 0 0 1430937128

22:32

6-Май-15

Хентай: основной подраздел / Hentai: main subsection ·· Mankitsu Happening / Почему-то случается (Matano Ryuuzou, Collaboration Works) (ep. 1-2 of 2) [cen] [2015 г. Big tits, Oral sex, Paizuri, Anal sex, Group sex, DVDRip] [jap / eng (1) / rus (1)] Sakura 610607084582 MB 0 0 1429822953

01:02

24-Апр-15

Хентай: основной подраздел / Hentai: main subsection ·· Mankitsu Happening / Почему-то случается (Matano Ryuuzou, Collaboration Works) (ep. 1 of 2) [cen] [2015 г. School, Students, Big tits, Oral sex, Paizuri, DVDRip] [jap / eng / rus] Sakura 285547798272 MB 0 0 1429558913

23:41

20-Апр-15

Хентай: основной подраздел / Hentai: main subsection ·· Mankitsu Happening / Почему-то случается (Matano Ryuuzou, Collaboration Works) (ep. 1 of 2) [cen] [2015 г. School, Students, Big tits, Oral sex, Paizuri, DVDRip] [jap] Sakura 285437069272 MB 0 0 1427495500

02:31

28-Мар-15

Транссексуалы / Transsexual ·· Перла Лохан - Там Где Случается Волшебство • Perla Lohan Where The Magic Happens [2014 г., Shemale, Solo, Masturbation, Big Dick, Giant Dick, Big Tits, Big Ass, Ebony, Latin, HD 720p, SiteRip] Sakura 304697647291 MB 0 0 1415215977

23:32

5-Ноя-14

Игры: основной подраздел / Games: main subsection ·· Accidents happen / Аварии случаются (lifeselector.com/SuslikX) [uncen] [2013, POV, hardcore, blowjob, facial, creampie, vaginal sex, blonde, black hair, big tits, threesome, american, car, small tits, brunette, foot fetish, latina] [eng] Sakura 11434288421.06 GB 0 0 1396188076

18:01

30-Мар-14

Сайтрипы 1991-2010 / SiteRip's 1991-2010 ·· What Happens in the Club, Stays in the Club / Чтобы не случилось в клубе оставайся в клубе [2010 г., Reality, Oral, Classic, Public] Sakura 15153227211.41 GB 0 0 1375031849

21:17

28-Июл-13

Еще никто не оставлял запись к записи скачать торрент Happening Случай . Будь первым!

!Обратная связь
//main.js show_panel