Статистика раздачи
Размер:  693 MB   |    Зарегистрирован:  1 год 8 месяцев   |    .torrent скачан:  67 раз   |   

Пиры будут получены при скачивании

 

Скачать порно Obsessions bourgeoises / La Sindrome di Max / Помешанные буржуа через торрент бесплатно :: UnionPron.org

 
 
Автор Сообщение

Sakura

avatar Sakura


Obsessions bourgeoises | La Sindrome di Max | Помешанные буржуа

[url=...1088220] [/url]
Год производства: 1997 г.
Страна: Italy | Италия || USA | США
Жанр: Feature
Продолжительность: 01:35:39
Язык: Итальянский | Italian

Режиссер: Alex Martini
Студия: Stars Pictures

В ролях:
Actresses
Jessica Gabriel
Marina Mantero
[url=...1088220]Olivia del Rio[/url]
Katarina Martinez (as Simona Grey)
Stephanie Silver (as Stefania Silver)

Actors
Andrea Nobili
Andrea Spider (as Andy Spyder)
Max Person
Miro Merola
Robert Rosenberg
Silvio Evangelista

Описание: Граф Адреа ещё никак не может отойти и пережить смерть своей любимой. Гувернантка-извращенка, очаровательная Olivia Del Rio, и дорогие друзья пытаются его вывести из оцепенения и организовывают для него великолепные "специальные вечера..."! Опустошённый смертью его жены, богатый вдовец Andrea решает развеять свою скорбь...
General
Format : AVI
Format/Info : Audio Video Interleave
File size : 692 MiB
Duration : 1h 35mn
Overall bit rate : 1 012 Kbps
Video
Format : MPEG-4 Visual
Format settings, BVOP : Yes
Format settings, QPel : No
Format settings, GMC : No warppoints
Format settings, Matrix : Default (H.263)
Codec ID : DX50
Codec ID/Hint : DivX 5
Duration : 1h 35mn
Bit rate : 871 Kbps
Width : 408 pixels
Height : 304 pixels
Display aspect ratio : 4/3
Frame rate : 25.000 fps
Resolution : 24 bits
Scan type : Progressive
Bits/(Pixel*Frame) : 0.281
Stream size : 596 MiB (86%)
Title : DVD2VIDEO
Writing library : DivX 5.0.5 (UTC 2003-04-24)
Audio
Format : MPEG Audio
Format version : Version 1
Format profile : Layer 3
Codec ID : 55
Codec ID/Hint : MP3
Duration : 1h 35mn
Bit rate mode : Constant
Bit rate : 128 Kbps
Channel(s) : 2 channels
Sampling rate : 48.0 KHz
Resolution : 16 bits
Stream size : 87.6 MiB (13%)
Alignment : Split accross interleaves
Interleave, duration : 24 ms (0.60 video frame)
Title : DVD2AUDIO00
Качество видео: DVDRip
Формат видео: AVI
Видео: MPEG4, DivX 5, 408x304 (4:3), 25.000 fps, 871 Kbps (0.281 bit/pixel)
Аудио: MP3, 48.0 KHz, 2 ch, 128 Kbps, CBR
[url=...993947]La Sindrome di Max (1.37 GB) [fra][/url]
[url=...401819]La Sindrome di Max в составе DVD5(Запись с SATTV)[/url]
Трекер:  [ 20-Май-2015 22:00 ]

Размер .torrent файла 14 KB


Размер: 693 MB
Хэш (hash) релиза: ec41c8fd4727f7dbc7149f382d36c5eca08283a5
Подписка на обновления:

Еще никто не оставлял запись к записи скачать торрент Obsessions bourgeoises La Sindrome di Max . Будь первым!

!Обратная связь
//main.js show_panel