Статистика раздачи
Размер:  2 GB   |    Зарегистрирован:  1 год 8 месяцев   |    .torrent скачан:  75 раз   |   

Пиры будут получены при скачивании

 

Скачать порно Choujin Densetsu Urotsukidouji: Mirai Hen / Urotsukidoji III: Return of the Overfiend / Уроцукидодзи 3: Тайна сверхдемона через торрент бесплатно :: UnionPron.org

 
 
Автор Сообщение

Sakura

avatar Sakura


Choujin Densetsu Urotsukidouji: Mirai Hen / Urotsukidoji III: Return of the Overfiend / 超神伝説うろつき童子 未来篇 / Уроцукидодзи 3: Тайна сверхдемона

Год производства: 1992 г.
Жанр: Bondage, Group sex, Oral sex, Fantasy, Rape, Demons, Androids, Tentacles
Серии: ep. 1-4 of 4
Продолжительность: 4х~50 min
Цензура: Отсутствует

Озвучка №1: Японская (Оригинальная)
Озвучка №2: Английская (Профессиональная, полное дублирование)

Режиссер: Takayama Hideki
Автор оригинала: Maeda Toshio
Студия: West Cape Productions, Anime 18

Описание RUS: Двадцать пять лет назад, мир был уничтожен. С приходом Сверхдемона, Бога всех богов, человеческий мир, мир демонов, и мир зверей рухнули вместе в хаос. С обещанием, что он родится через 100 лет, чтобы заново создать разрушенный мир, Сверхдемон спал в утробе матери. Но что-то пошло не так ...

Описание ENG: Twenty-five years ago, the world was annihilated. With the coming of the Overfiend, God of all Gods, the human, demon, and beast realms collapsed together in chaos. With the promise that he would be born in 100 years to re-create his failed world, the Overfiend settled back to sleep within his mother's womb. But something has gone terribly wrong...
Now the Overfiend is born prematurely and awaits the coming of his natural the enemy, the Lord of Chaos. His only hope for survival are Amano Jyaku and his sister Megumi. But destiny has moved in ways that even the Overfiend could never predict, as a new race of half-breed demon beasts has evolved.
As Amano travels to the kingdom of Azuma to investigate the appearance of the Lord of Chaos, he is swept up in the world-conquering schemes of Caesar, Azuma's dictator.
Against the backdrop of a demon beast slave revolt and the return of the diabolical Munhihausen, only Amano and the demon beast Buju can save the world from another fiery destruction. With the fate of the earth and its inhabitants hanging in the balance, all wait to see what the coming of the Lord of Chaos will bring...

Информационные ссылки: AniDB - MAL - World Art - ХентайМаг

Качество видео: DVD9
Формат видео: DVD Video
Видео кодек: MPEG2
Аудио кодек: AC3
Видео: 720х480, (4:3), 29,970 кадров/сек, ~ 5217 Кбит/сек, NTSC
Аудио №1: JAP, AC-3, 2 канала, 224 Кбит/сек, 48,0 КГц
Аудио №2: ENG, AC-3, 2 канала, 224 Кбит/сек, 48,0 КГц
Доп. материалы: Трейлеры, Фотогалерея
Общее
Полное имя : H:\VIDEO_TS\VTS_01_1.VOB
Формат : MPEG-PS
Размер файла : 1024 Мбайт
Продолжительность : 24 м.
Режим общего битрейта : Переменный
Общий поток : 5780 Кбит/сек

Видео
Идентификатор : 224 (0xE0)
Формат : MPEG Video
Версия формата : Version 2
Профиль формата : Main@Main
Параметр BVOP формата : Да
Параметр матрицы формата : По умолчанию
Параметр GOP формата : M=3, N=13
Продолжительность : 24 м.
Вид битрейта : Переменный
Битрейт : 5217 Кбит/сек
Ширина : 720 пикселей
Высота : 480 пикселей
Соотношение сторон : 4:3
Частота кадров : 29,970 кадров/сек
Стандарт вещания : NTSC
Цветовое пространство : YUV
Субдискретизация насыщенности : 4:2:0
Битовая глубина : 8 бит
Метод сжатия : С потерями
Бит/(Пиксели*Кадры) : 0.504
Временной код первого кадра : 00:00:00:00
Оригинал временного кода : Group of pictures header
Размер потока : 924 Мбайт (90%)
Основные цвета : BT.601 NTSC
Характеристики трансфера : BT.601
Коэффициенты матрицы : BT.601
Gop_OpenClosed_FirstFrame : Closed

Аудио #1
Идентификатор : 189 (0xBD)-128 (0x80)
Формат : AC-3
Формат/Информация : Audio Coding 3
Расширение режима : CM (complete main)
Параметр Endianness формата : Big
Режим смешивания : DVD-Video
Продолжительность : 6 с. 304 мс.
Вид битрейта : Постоянный
Битрейт : 224 Кбит/сек
Каналы : 2 канала
Расположение каналов : Front: L R
Частота : 48,0 КГц
Битовая глубина : 16 бит
Метод сжатия : С потерями
Размер потока : 172 Кбайт (0%)

Аудио #2
Идентификатор : 189 (0xBD)-129 (0x81)
Формат : AC-3
Формат/Информация : Audio Coding 3
Расширение режима : CM (complete main)
Параметр Endianness формата : Big
Режим смешивания : DVD-Video
Продолжительность : 6 с. 304 мс.
Вид битрейта : Постоянный
Битрейт : 224 Кбит/сек
Каналы : 2 канала
Расположение каналов : Front: L R
Частота : 48,0 КГц
Битовая глубина : 16 бит
Метод сжатия : С потерями
Размер потока : 172 Кбайт (0%)

Меню
1 Здесь: оригинальный диск DVD9, издатель Anime 18, английская звуковая дорожка, все серии - [url=...1020982]Там[/url] DVD5 , издатель MC Entertainment, русская звуковая дорожка и субтитры, 3-4 серия.

2 Здесь: оригинальный диск DVD9, издатель Anime 18, английская звуковая дорожка - [url=...1142007]Там[/url] DVD9, коллекционное издатель MC Entertainment, русская звуковая дорожка и субтитры.

Доп. информация: В России стандарт PAL, 5 регион, 720х576 - MC Entertainment накладывала звуковые дорожки на американские диски (R1)
Время раздачи: с 09 до 00.00 (Киев), отдача: 100 кб/с (анальный инет)
1 Большая просьба, помогайте другим скачать (тогда релизов будет больше)
2 Если нет сидов - пишите в лс
3 Если сдохли постеры и скриншоты - пишите в лс
Трекер:  [ 04-Май-2015 12:30 ]

Размер .torrent файла 20 KB


Размер: 2 GB
Хэш (hash) релиза: 5848c0d782901bc0b14f21d958057c1f4719b67c
Подписка на обновления:

Еще никто не оставлял запись к записи скачать торрент Choujin Densetsu Urotsukidouji: Mirai Hen Urotsukidoji III: Return of the Overfiend . Будь первым!

!Обратная связь
//main.js show_panel