Статистика раздачи
Размер:  1.46 GB   |    Зарегистрирован:  1 год 8 месяцев   |    .torrent скачан:  76 раз   |   

Пиры будут получены при скачивании

 

Скачать порно Шесть шведок с бензоколонки / Sechs Schwedinnen von der Tankstelle VO + Original через торрент бесплатно :: UnionPron.org

 
 
Автор Сообщение

Sakura

avatar Sakura



Шесть шведок с бензоколонки / Sechs Schwedinnen von der Tankstelle

Производство: Швейцария, Elite
Год выпуска: 1980 г.
Жанр: эротика, комедия, фэнтези
Продолжительность: 01:24:30

Мировая премьера: 19 сентября 1980
Перевод: Любительский (одноголосый, закадровый) [Переводчик не опознан]
Оригинальный аудиопоток: немецкий

Режиссер: Эрвин С. Дитрих / Erwin C. Dietrich
В ролях: Брижит Лаэ, Джейн Бэйкер, Надин Паскаль, Френс Джордан, Эрик Фальк, Флоре Солье, Карл Гюслинг, Роман Хубер, Барбара Мус, Элоди Далаж, Эльза Маруся
Описание: Шесть сексапильных шведок унаследовали бензоколонку в швейцарском селе и обслуживают своих клиентов по полной программе. Оскорбленная мораль мэра и его советников подталкивают их на закрытие этого «бизнеса» веселых девиц. Однако все советники имеют любовную связь с женой мэра и подглядывают за девицами, когда те занимаются зарядкой в близлежащем лесу. Желание моралистов закрыть бензоколонку становится все слабее и слабее по мере того, как они знакомятся со шведками все ближе и ближе.



Качество видео: BDRip
Контейнер: AVI
Видео кодек: XviD
Аудио кодек: AC3
Видео: 1819 Кбит/сек, 720х384, 24,000 кадра/сек
Аудио №1: 192 Кбит/сек, 2 канала, 48,0 КГц (Русский)
Аудио №2: 448 Кбит/сек, 6 каналов, 48,0 КГц (Немецкий)
Cубтитры: отсутствуют
Сюжет побоку, всё побоку, возьмём шесть девок, поместим их в отель в предгорьях и притянем за уши якобы похотливых мужчин разной степени волосатости, которые, будучи очевидно в состоянии нестояния, станут демонстрировать зрителю бурную страсть с пылкими скандинавочками. Вот и всё кино.

Сегодня, скорее всего, номер бы не прошёл, но в 1980-м шанс быть замеченными был, надо полагать, повыше. Не вышло, не срослось.

По факту — эротическая безделушка, несмешная и вообще пригодная разве что в качестве ненавязчиво бубнящего фона для уютных посиделок морозным зимним вечером.
Общее
Формат                                   : AVI
Формат/Информация                        : Audio Video Interleave
Профиль формата                          : OpenDML
Настройки формата                        : rec
Размер файла                             : 1,46 Гбайт
Продолжительность                        : 1 ч. 24 м.
Общий поток                              : 2467 Кбит/сек
Программа кодирования                    : AVI-Mux GUI 1.17.8.3, Feb 16 201019:42:50

Видео
Идентификатор                            : 0
Формат                                   : MPEG-4 Visual
Профиль формата                          : Advanced Simple@L5
Параметр BVOP формата                    : 2
Параметр QPel формата                    : Нет
Параметр GMC формата                     : Без точки перехода
Параметр матрицы формата                 : Default (H.263)
Идентификатор кодека                     : XVID
Идентификатор кодека/Подсказка           : XviD
Продолжительность                        : 1 ч. 24 м.
Битрейт                                  : 1819 Кбит/сек
Ширина                                   : 720 пикселей
Высота                                   : 384 пикселя
Соотношение сторон                       : 1,85:1
Частота кадров                           : 24,000 кадра/сек
Цветовое пространство                    : YUV
Субдискретизация насыщенности            : 4:2:0
Битовая глубина                          : 8 бит
Тип развёртки                            : Прогрессивная
Метод сжатия                             : С потерями
Бит/(Пиксели*Кадры)                      : 0.274
Размер потока                            : 1,07 Гбайт (74%)
Библиотека кодирования                   : XviD 1.2.1 (UTC 2008-12-04)

Аудио #1
Идентификатор                            : 1
Формат                                   : AC-3
Формат/Информация                        : Audio Coding 3
Расширение режима                        : CM (complete main)
Параметр Endianness формата              : Big
Идентификатор кодека                     : 2000
Продолжительность                        : 1 ч. 24 м.
Вид битрейта                             : Постоянный
Битрейт                                  : 192 Кбит/сек
Каналы                                   : 2 канала
Расположение каналов                     : Front: L R
Частота                                  : 48,0 КГц
Битовая глубина                          : 16 бит
Метод сжатия                             : С потерями
Размер потока                            : 116 Мбайт (8%)
Выравнивание                             : Соединение по промежуткам
Продолжительность промежутка             : 64  мс. (1,54 видеокадра)
Время предзагрузки промежутка            : 192  мс.
Заголовок                                : Sechs.Schwedinnen.von.der.Tankstelle_rus

Аудио #2
Идентификатор                            : 2
Формат                                   : AC-3
Формат/Информация                        : Audio Coding 3
Расширение режима                        : CM (complete main)
Параметр Endianness формата              : Big
Идентификатор кодека                     : 2000
Продолжительность                        : 1 ч. 24 м.
Вид битрейта                             : Постоянный
Битрейт                                  : 448 Кбит/сек
Каналы                                   : 6 каналов
Расположение каналов                     : Front: L C R, Side: L R, LFE
Частота                                  : 48,0 КГц
Битовая глубина                          : 16 бит
Метод сжатия                             : С потерями
Размер потока                            : 271 Мбайт (18%)
Выравнивание                             : Соединение по промежуткам
Продолжительность промежутка             : 64  мс. (1,54 видеокадра)
Время предзагрузки промежутка            : 192  мс.
Заголовок                                : Tankstelle_ger_448
Трекер:  [ 04-Май-2015 00:00 ]

Размер .torrent файла 15 KB


Размер: 1.46 GB
Хэш (hash) релиза: b0ab364982e5aa9188347b368997128e53a764db
Подписка на обновления:

Еще никто не оставлял запись к записи скачать торрент Шесть шведок с бензоколонки Sechs Schwedinnen von der Tankstelle . Будь первым!

!Обратная связь
//main.js show_panel