Статистика раздачи
Размер:  792 MB   |    Зарегистрирован:  2 года 2 месяца   |    .torrent скачан:  81 раз   |   

Пиры будут получены при скачивании

 

Скачать порно Anita e la Maschera di Ferro / The Lady in the Iron Mask / Die Frau in der eisernen Maske / Леди в железной маске через торрент бесплатно :: UnionPron.org

 
 
Автор Сообщение

Sakura

avatar Sakura


Anita e la Maschera di Ferro | The Lady in the Iron Mask
Die Frau in der eisernen Maske | Леди в железной маске

[url=...1553110] [/url]
Год производства: 1998 г.
Страна: Италия | Italy
Жанр: Feature
Продолжительность: 01:33:59
Язык: Немецкий

Режиссер: Joe D'Amato
Студия: Butterfly Motion Pictures | In-X-Cess Productions | Goldlight

В ролях:
Actresses
[url=...1567720]Wanda Curtis (as Ajnalka Kovacs)[/url] [Anal Facial Bald]
[url=...1076208]Anita Blond[/url] [Facial]
Judith Bella [Anal]
[url=...1553110]Judith Kostner (as Judith Varadt)[/url] [Anal]
Mary Eleniak [Facial]
Marzia Lippi [LezOnly]
Shanon Stone (as Yvette Bars) [Anal]

Actors
Bruno SX
Chris Charming
Davide Gladio
Leslie Taylor (as Leslie White)
Zenza Raggi
NonSex Performers
Ivano Minotti
Unknown Male 219460-B
Unknown Male 219460-C
Unknown Male 219460-D
Unknown Male 219460-E

Описание: Было у короля две дочери. Одна – настоящая потаскуха, трахается, как крольчиха, а вторая – сама невинность. Кто из них оказался в подземелье, закованной в кандалы – большой вопрос. В любом случае, заниматься любовью, когда у тебя на голове железная маска, очень романтично…

Scene Breakdowns:
Scene 1. [url=...1076208]Anita Blond[/url], Leslie Taylor
Scene 2. Shanon Stone, Chris Charming
Scene 3. [url=...1076208]Anita Blond[/url], Zenza Raggi
Scene 4. [url=...1076208]Anita Blond[/url], [url=...1553110]Judith Kostner[/url]
Scene 5. Mary Eleniak, Bruno SX
Scene 6. [url=...1076208]Anita Blond[/url], Davide Gladio
Scene 7. Judith Bella, Bruno SX
Scene 8. [url=...1567720]Wanda Curti[/url]s, Zenza Raggi
Scene 9. [url=...1567720]Wanda Curtis[/url], [url=...1076208]Anita Blond[/url], Marzia Lippi, Bruno SX
Scene 10. [url=...1553110]Judith Kostner[/url], Zenza Raggi
General
Format : AVI
Format/Info : Audio Video Interleave
File size : 791 MiB
Duration : 1h 33mn
Overall bit rate : 1 176 Kbps
Video
Format : MPEG-4 Visual
Format settings, BVOP : Yes
Format settings, QPel : No
Format settings, GMC : No warppoints
Format settings, Matrix : Default (H.263)
Muxing mode : Packed bitstream
Codec ID : DX50
Codec ID/Hint : DivX 5
Duration : 1h 33mn
Bit rate : 1 029 Kbps
Width : 400 pixels
Height : 288 pixels
Display aspect ratio : 1.389
Frame rate : 25.000 fps
Resolution : 24 bits
Colorimetry : 4:2:0
Scan type : Progressive
Bits/(Pixel*Frame) : 0.357
Stream size : 692 MiB (87%)
Title : Video
Writing library : DivX 5.2.0 (DrDivX 105) (UTC 2004-07-17)
Audio
Format : MPEG Audio
Format version : Version 1
Format profile : Layer 3
Codec ID : 55
Codec ID/Hint : MP3
Duration : 1h 33mn
Bit rate mode : Variable
Bit rate : 128 Kbps
Channel(s) : 2 channels
Sampling rate : 44.1 KHz
Resolution : 16 bits
Stream size : 90.6 MiB (11%)
Alignment : Aligned on interleaves
Interleave, duration : 26 ms (0.65 video frame)
Interleave, preload duration : 459 ms
Title : Audio
Качество видео: DVDRip
Формат видео: AVI
Видео: MPEG4, DivX 5, 400x288 (1.389), 25.000 fps, 1 029 Kbps (0.357 bit/pixel)
Аудио: MP3, 44.1 KHz, 2 ch, 128 Kbps, VBR
[url=...1231110]Lady In The Iron Mask DVD5 (3.39 GB) [rus][/url]
[url=...1241280]Lady In The Iron Mask (1.36 GB) [rus][/url]
[url=...152465]Lady In The Iron Mask (644 MB) [rus][/url]
[url=...372703]Lady In The Iron Mask (402 MB) [eng][/url]
Трекер:  [ 22-Апр-2015 21:00 ]

Размер .torrent файла 16 KB


Размер: 792 MB
Хэш (hash) релиза: de004d4abae5c96eba382d4f5f689f1399f5cee2
Подписка на обновления:

Еще никто не оставлял запись к записи скачать торрент Anita e la Maschera di Ferro The Lady in the Iron Mask . Будь первым!

!Обратная связь
//main.js show_panel