Статистика раздачи
Размер:  2 GB   |    Зарегистрирован:  1 год 8 месяцев   |    .torrent скачан:  96 раз   |   

Пиры будут получены при скачивании

 

Скачать порно Resort Boin / Курорт "Boin" / Сисько-Курорт через торрент бесплатно :: UnionPron.org

 
 
Автор Сообщение

Sakura

avatar Sakura


Resort Boin / リゾートBOIN / Курорт "Boin" / Сисько-Курорт

Год производства: 2007 г.
Жанр: Anal sex, BDSM, Big tits, Group sex, Oral sex, Titsjob, Beach, Harem, Tentacles
Серии: ep. 1-3 of 3
Продолжительность: 3х~28 min
Цензура: Есть

Озвучка: Японская (Оригинальная)

Режиссер: Kimisuke Murayama
Автор оригинала: Crossnet
Студия: Milky Animation Label, Studio Eromatick

Описание RUS: Дайсуке с вожделением предвкушает запланированную на весенние каникулы поездку на райский остров. Его ждут заслуженный отдых и созерцание прекрасных девушек в откровенных купальниках, среди которых к своему удивлению он становится очень популярен. Нао и Мицугу как всегда следуют за ним по пятам, пытаясь привлечь его внимание. К тому же он случайно встречает свою кузину Маю, которую не видел с детства, а также взбалмошную Канае с ее подругой Микой.
© ANN

Описание ENG: On spring break, Daisuke is excited for his vacation on a tropical island for some well deserved relaxation and girl watching. He finds himself quite inexplicably popular with the ladies as well. Nao and Mitsugu follow him there as well competing, as usual, for his attentions. Meanwhile he meets his cousin Maya again after a long time as well as the wild Kanae and her friend Mika.

Информационные ссылки: AniDB - MAL - World Art - ХентайМаг

Качество видео: Blu-Ray
Формат видео: Blu-Ray Video
Видео кодек: H.264/AVC
Аудио кодек: PCM
Видео: 1920х1080, (16:9), 29,970 кадров/сек, 12,0 Мбит/сек, NTSC
Аудио: JAP, PCM, 2 канала, 1536 Кбит/сек, 48,0 КГц
Меню: Отсутствует (хз.)
Общее
Идентификатор : 0 (0x0)
Полное имя : D:\Hentai\Resort Boin (BDMV)\Resort Boin (BDMV, The Best)\Resort Boin\BDMV\STREAM\00000.m2ts
Формат : BDAV
Формат/Информация : Blu-ray Video
Размер файла : 8,28 Гбайт
Продолжительность : 1 ч. 23 м.
Режим общего битрейта : Переменный
Общий поток : 14,1 Мбит/сек
Максимальный общий битрейт : 48,0 Мбит/сек

Видео
Идентификатор : 4113 (0x1011)
Идентификатор меню : 1 (0x1)
Формат : AVC
Формат/Информация : Advanced Video Codec
Профиль формата : High@L4.1
Параметр CABAC формата : Да
Параметр ReFrames формата : 4 кадра
Параметр GOP формата : M=3, N=24
Идентификатор кодека : 27
Продолжительность : 1 ч. 23 м.
Вид битрейта : Переменный
Битрейт : 12,0 Мбит/сек
Максимальный битрейт : 35,0 Мбит/сек
Ширина : 1920 пикселей
Высота : 1080 пикселей
Соотношение сторон : 16:9
Частота кадров : 29,970 кадров/сек
Стандарт вещания : NTSC
Цветовое пространство : YUV
Субдискретизация насыщенности : 4:2:0
Битовая глубина : 8 бит
Тип развёртки : MBAFF
Бит/(Пиксели*Кадры) : 0.194
Размер потока : 7,05 Гбайт (85%)
Основные цвета : BT.709
Характеристики трансфера : BT.709
Коэффициенты матрицы : BT.709

Аудио
Идентификатор : 4352 (0x1100)
Идентификатор меню : 1 (0x1)
Формат : PCM
Параметр Endianness формата : Big
Параметр Sign формата : Signed
Режим смешивания : Blu-ray
Идентификатор кодека : 128
Продолжительность : 1 ч. 23 м.
Вид битрейта : Постоянный
Битрейт : 1536 Кбит/сек
Каналы : 2 канала
Расположение каналов : Front: L R
Частота : 48,0 КГц
Битовая глубина : 16 бит
Размер потока : 921 Мбайт (11%)
1) [url=...1117843]Там[/url] самодельный DVD5, русские и английские субтитры - Здесь Blu-Ray (The Best) издание, нет субтитров
2) [url=...1100037]Там[/url] 3хDVD5, русские и английские субтитры - Здесь Blu-Ray (The Best) издание, нет субтитров
Время раздачи: с 09 до 00.00 (Киев), отдача: 100 кб/с (анальный инет)
1 Большая просьба, помогайте другим скачать (тогда релизов будет больше)
2 Если нет сидов - пишите в лс
3 Если сдохли постеры и скриншоты - пишите в лс
Трекер:  [ 19-Апр-2015 15:30 ]

Размер .torrent файла 31 KB


Размер: 2 GB
Хэш (hash) релиза: a995cacadd5388bf5815056b31ed7a4246d77898
Подписка на обновления:

Еще никто не оставлял запись к записи скачать торрент Resort Boin Курорт "Boin" . Будь первым!

!Обратная связь
//main.js show_panel