Статистика раздачи
Размер:  702 MB   |    Зарегистрирован:  2 года 6 месяцев   |    .torrent скачан:  133 раза   |   

Пиры будут получены при скачивании

 

Скачать порно Harte Arbeit zahlt sich aus / Brivido Al Sole / Beach Party / Emocion Bajo El Sol / Frissons Italiens / Дрожь от Солнца ) через торрент бесплатно :: UnionPron.org

 
 
Автор Сообщение

Sakura

avatar Sakura


Harte Arbeit zahlt sich aus | Brivido Al Sole | Beach Party
Emocion Bajo El Sol | Frissons Italiens | Дрожь от Солнца


[url=...1070291] [/url]
Год производства: 1991 г.
Страна: Италия | Italy
Жанр: Feature
Продолжительность: 01:18:46
Язык: Испанский | Spanish

Режиссер: Mario Salieri
Студия: Mario Salieri Entertainment Group (Sascha Alexander Productions)

В ролях:
Actresses
Charlene Roben [Anal Facial]
Feline Fabre (as Ida Ivanovic) [Anal Facial]
[url=...1070291]Jeanna Fine[/url]
[url=...1856068]Luana Borgia[/url] [Anal Facial]
[url=...1640654]Sunny McKay[/url] [Facial]
NonSex Performers
Antonella Puca
Lisa Bright
Magdalena Lynn (as Nicoletta Astori)
[url=...1639541]Zara Whites[/url]

Actors
Rally van Kamp (as Rally Wodman)
Richard Langin (as Richard Voicin)
Roberto Malone (as Robert Malone)
NonSex Performers
Ciccio
Franco D'Alessi (as Franco Alessi)
Nunzio Radaelli

Описание: Необычно "светлый" фильм, что не совсем характерно для творчества Марио Сальери. Окунитесь с головой атмосферу раскрепощенного летнего отдыха!
A vacation is much needed for these people visiting a thrilling resort, the beaches are clear and love is in the air. Watch as one man meets a stunning girl on vacation and develops more than just a friendship with her, along the road however we can't forget about the hot sweaty sex going on at this erotic resort!

Scene Breakdowns:
Scene 1. Charlene Roben, [url=...1856068]Luana Borgia[/url]
Scene 2. [url=...1070291]Jeanna Fine[/url], Rally van Kamp
Scene 3. [url=...1640654]Sunny McKay[/url]
Scene 4. Charlene Roben, Luana Borgia, Richard Langin
Scene 5. [url=...1640654]Sunny McKay[/url]
Scene 6. [url=...1856068]Luana Borgia[/url], Rally van Kamp
Scene 7. Feline Fabre, Roberto Malone
Scene 8. [url=...1640654]Sunny McKay[/url]
Scene 9. [url=...1640654]Sunny McKay[/url], Richard Langin
Scene 10. [url=...1640654]Sunny McKay[/url], Roberto Malone
General
Format : AVI
Format/Info : Audio Video Interleave
File size : 700 MiB
Duration : 1h 18mn
Overall bit rate : 1 242 Kbps
Writing application : VirtualDubMod 1.5.4.1 (build 2178/release)
Writing library : VirtualDubMod build 2178/release
Video
Format : MPEG-4 Visual
Format profile : Streaming Video@L1
Format settings, BVOP : Yes
Format settings, QPel : No
Format settings, GMC : No warppoints
Format settings, Matrix : Custom
Codec ID : XVID
Codec ID/Hint : XviD
Duration : 1h 18mn
Bit rate : 1 125 Kbps
Width : 432 pixels
Height : 336 pixels
Display aspect ratio : 1.286
Frame rate : 25.000 fps
Resolution : 24 bits
Colorimetry : 4:2:0
Scan type : Progressive
Bits/(Pixel*Frame) : 0.310
Stream size : 634 MiB (91%)
Writing library : XviD 1.2.0.dev47 (UTC 2006-11-01)
Audio
Format : MPEG Audio
Format version : Version 1
Format profile : Layer 3
Codec ID : 55
Codec ID/Hint : MP3
Duration : 1h 18mn
Bit rate mode : Variable
Bit rate : 104 Kbps
Nominal bit rate : 128 Kbps
Channel(s) : 2 channels
Sampling rate : 48.0 KHz
Resolution : 16 bits
Video delay : 48ms
Stream size : 58.7 MiB (8%)
Alignment : Split accross interleaves
Interleave, duration : 24 ms (0.60 video frame)
Interleave, preload duration : 619 ms
Writing library : LAME3.97
Encoding settings : -m j -V 4 -q 2 -lowpass 17 --abr 128
Language : Espanol
Качество видео: DVDRip
Формат видео: AVI
Видео: MPEG4, XviD, 432x336 (1.286), 25.000 fps, 1 125 Kbps (0.310 bit/pixel)
Аудио: MP3, 48.0 KHz, 2 ch, 104 Kbps, VBR (Spanish)
[url=...1220763]Brivido Al Sole (1.08 GB)[/url]
[url=...816335]Brivido Al Sole (1.01 GB)[/url]
Трекер:  [ 13-Апр-2015 23:30 ]

Размер .torrent файла 14 KB


Размер: 702 MB
Хэш (hash) релиза: 4db50ce28cc5799f8f0776e86c1633465a8a76c1
Подписка на обновления:

Еще никто не оставлял запись к записи скачать торрент Harte Arbeit zahlt sich aus Brivido Al Sole . Будь первым!

!Обратная связь
//main.js show_panel