Статистика раздачи
Размер:  2 GB   |    Зарегистрирован:  1 год 11 месяцев   |    .torrent скачан:  101 раз   |   

Пиры будут получены при скачивании

 

Скачать порно Andrea Francis через торрент бесплатно :: UnionPron.org

 
 
Автор Сообщение

Sakura

avatar Sakura


Andrea Francis (Alina, Andrea, Andrea C, Andrea Parker, Diora Cooper) (16 роликов)

Год производства: 2015 г.
Жанр: Straight, Teen, Hardcore, Anal, Oral
Описание: http://www.pornteengirl.com/model/andrea-francis.html

Доп. информация: Скриншоты в раздаче. В папках 1080 и 720 копии роликов в высоком разрешении.
Название: publicagent_e102_andrea_1080p

Тип потока: Видео
Длительность: 00:28:49
Кодек: AVC
Кодек/описание: Advanced Video Codec
Кодек/профиль: Main@L4.0
Кодек/ID: avc1
Кодек/CABAC: No
Кодек/ReFrames: 2 frames
Размеры изображения: 1888 x 1062 (16:9)
Частота кадров: 25.000 fps
Частота кадров/тип: Constant
Размер потока: 1.19 GiB (98%)
Битрейт: 5 933 Kbps
Цветовое пространство: YUV
Тип развёртки: Progressive
Колориметрия: 4:2:0
Глубина: 8 bits

Тип потока: Звук #1
Язык: English
Длительность: 00:28:49.440
Кодек: AAC
Кодек/описание: Advanced Audio Codec
Кодек/профиль: LC
Кодек/ID: 40
Частота дискретизации: 48.0 KHz
Каналов: 2 channels
Битрейт: 128 Kbps
Битрейт/тип: Constant
Размер потока: 26.3 MiB (2%)
Метод сжатия: Lossy

Название: WoodmanCastingX.12.10.03.Diora.Cooper.Casting.And.Hardcore.XXX.1080p

Тип потока: Видео
Длительность: 01:21:39
Кодек: AVC
Кодек/описание: Advanced Video Codec
Кодек/профиль: Main@L4.2
Кодек/ID: avc1
Кодек/CABAC: No
Кодек/ReFrames: 2 frames
Размеры изображения: 1888 x 1062 (16:9)
Частота кадров: 50.000 fps
Частота кадров/тип: Constant
Размер потока: 5.88 GiB (99%)
Битрейт: 10.3 Mbps
Цветовое пространство: YUV
Тип развёртки: Progressive
Колориметрия: 4:2:0
Глубина: 8 bits

Тип потока: Звук #1
Язык: English
Длительность: 01:21:39.840
Кодек: AAC
Кодек/описание: Advanced Audio Codec
Кодек/профиль: LC
Кодек/ID: 40
Частота дискретизации: 48.0 KHz
Каналов: 2 channels
Битрейт: 128 Kbps
Битрейт/тип: Constant
Размер потока: 76.2 MiB (1%)
Метод сжатия: Lossy

Название: [AllInternal.com PerfectGonzo.com] Andrea Parker

Тип потока: Видео
Длительность: 00:42:06
Кодек: AVC
Кодек/описание: Advanced Video Codec
Кодек/профиль: High@L4.0
Кодек/ID: avc1
Кодек/CABAC: No
Кодек/ReFrames: 2 frames
Размеры изображения: 1920 x 1080 (16:9)
Частота кадров: 29.970 fps
Частота кадров/тип: Constant
Размер потока: 3.95 GiB (99%)
Битрейт: 13.4 Mbps
Битрейт/макс: 14.0 Mbps
Битрейт/тип: VBR
Стандарт: NTSC
Цветовое пространство: YUV
Тип развёртки: Progressive
Колориметрия: 4:2:0
Глубина: 8 bits

Тип потока: Звук #1
Язык: English
Длительность: 00:42:06.224
Кодек: AAC
Кодек/описание: Advanced Audio Codec
Кодек/профиль: LC
Кодек/ID: 40
Частота дискретизации: 48.0 KHz
Каналов: 2 channels
Битрейт: 157 Kbps
Битрейт/тип: Variable
Размер потока: 47.4 MiB (1%)
Метод сжатия: Lossy

Название: Christoph's Anal Attraction_Andrea Francis

Тип потока: Видео
Длительность: 00:43:59
Кодек: AVC
Кодек/описание: Advanced Video Codec
Кодек/профиль: High@L4.0
Кодек/ID: avc1
Кодек/CABAC: Yes
Кодек/ReFrames: 4 frames
Размеры изображения: 1920 x 1080 (16:9)
Частота кадров: 29.970 fps
Частота кадров/тип: Constant
Размер потока: 2.08 GiB (98%)
Битрейт: 6 800 Kbps
Библиотека кодирования: x264 core 107
Цветовое пространство: YUV
Тип развёртки: Progressive
Колориметрия: 4:2:0
Глубина: 8 bits

Тип потока: Звук #1
Длительность: 00:43:59.482
Кодек: AAC
Кодек/описание: Advanced Audio Codec
Кодек/профиль: LC
Кодек/ID: 40
Частота дискретизации: 44.1 KHz
Каналов: 2 channels
Битрейт: 152 Kbps
Битрейт/тип: Variable
Размер потока: 47.8 MiB (2%)
Метод сжатия: Lossy

Название: MikesApartment.12.11.07.Andrea.Francis.Firm.And.Ready.XXX.1080p

Тип потока: Видео
Длительность: 00:49:21
Кодек: AVC
Кодек/описание: Advanced Video Codec
Кодек/профиль: High@L4.0
Кодек/ID: avc1
Кодек/CABAC: No
Кодек/ReFrames: 3 frames
Размеры изображения: 1920 x 1080 (16:9)
Частота кадров: 29.970 fps
Частота кадров/тип: Constant
Размер потока: 3.31 GiB (94%)
Битрейт: 9 587 Kbps
Битрейт/макс: 10.0 Mbps
Битрейт/тип: VBR
Стандарт: Component
Цветовое пространство: YUV
Тип развёртки: Progressive
Колориметрия: 4:2:0
Глубина: 8 bits

Тип потока: Звук #1
Длительность: 00:49:21.705
Кодек: AAC
Кодек/описание: Advanced Audio Codec
Кодек/профиль: LC
Кодек/ID: 40
Частота дискретизации: 48.0 KHz
Каналов: 2 channels
Битрейт: 192 Kbps
Битрейт/тип: Variable
Размер потока: 67.8 MiB (2%)
Метод сжатия: Lossy

Название: MofosWorldwide.12.11.24.Andrea.Filthy.Andrea.XXX.1080p

Тип потока: Видео
Длительность: 00:41:18
Кодек: AVC
Кодек/описание: Advanced Video Codec
Кодек/профиль: High@L4.1
Кодек/ID: avc1
Кодек/CABAC: Yes
Кодек/ReFrames: 5 frames
Размеры изображения: 1920 x 1080 (16:9)
Частота кадров: 29.970 fps
Частота кадров/тип: Variable
Размер потока: 3.47 GiB (95%)
Битрейт: 12.0 Mbps
Библиотека кодирования: x264 core 125 r2208 d9d2288
Цветовое пространство: YUV
Тип развёртки: Progressive
Колориметрия: 4:2:0
Глубина: 8 bits

Тип потока: Звук #1
Длительность: 00:41:18.592
Кодек: AAC
Кодек/описание: Advanced Audio Codec
Кодек/профиль: LC
Кодек/ID: 40
Частота дискретизации: 48.0 KHz
Каналов: 2 channels
Битрейт: 128 Kbps
Битрейт/тип: Constant
Размер потока: 37.8 MiB (1%)
Метод сжатия: Lossy

Название: [21Naturals.com 21Sextury.com] (Heartbeat v400016 Andrea Francis_1080

Тип потока: Альбом
Авторские права: 21sextury.com

Тип потока: Видео
Длительность: 00:18:58
Кодек: VC-1
Кодек/описание: Windows Media Video 9
Кодек/профиль: MP@HL
Кодек/ID: WMV3
Размеры изображения: 1920 x 1080 (16:9)
Частота кадров: 25.000 fps
Размер потока: 1.06 GiB (99%)
Битрейт: 8 000 Kbps
Битрейт/тип: CBR
Метод сжатия: Lossy
Цветовое пространство: YUV
Тип развёртки: Progressive
Колориметрия: 4:2:0
Глубина: 8 bits

Тип потока: Звук #1
Язык: English (US)
Длительность: 00:18:58.334
Кодек: WMA
Кодек/ID: 161
Частота дискретизации: 44.1 KHz
Каналов: 2 channels
Битрейт: 96.0 Kbps
Битрейт/тип: Constant
Размер потока: 13.0 MiB (1%)
Глубина: 16 bits

Название: Mighty Mistress Andrea Francis , Adriana Russo 22.10 720p

Тип потока: Альбом
Авторские права: 21sextury.com

Тип потока: Видео
Длительность: 00:26:50
Кодек: VC-1
Кодек/описание: Windows Media Video 9
Кодек/профиль: MP@HL
Кодек/ID: WMV3
Размеры изображения: 1920 x 1080 (16:9)
Частота кадров: 25.000 fps
Размер потока: 1.50 GiB (98%)
Битрейт: 8 000 Kbps
Битрейт/тип: CBR
Метод сжатия: Lossy
Цветовое пространство: YUV
Тип развёртки: Progressive
Колориметрия: 4:2:0
Глубина: 8 bits

Тип потока: Звук #1
Язык: English (US)
Длительность: 00:26:50.489
Кодек: WMA
Кодек/ID: 161
Частота дискретизации: 44.1 KHz
Каналов: 2 channels
Битрейт: 96.0 Kbps
Битрейт/тип: Constant
Размер потока: 18.4 MiB (1%)
Глубина: 16 bits

Название: [AllInternal.com PerfectGonzo.com] Andrea Parker

Тип потока: Видео
Длительность: 00:42:06
Кодек: AVC
Кодек/описание: Advanced Video Codec
Кодек/профиль: Main@L3.1
Кодек/ID: avc1
Кодек/CABAC: No
Кодек/ReFrames: 2 frames
Размеры изображения: 1280 x 720 (16:9)
Частота кадров: 29.970 fps
Частота кадров/тип: Constant
Размер потока: 1.72 GiB (97%)
Битрейт: 5 846 Kbps
Битрейт/макс: 6 000 Kbps
Битрейт/тип: VBR
Стандарт: NTSC
Цветовое пространство: YUV
Тип развёртки: Progressive
Колориметрия: 4:2:0
Глубина: 8 bits

Тип потока: Звук #1
Язык: English
Длительность: 00:42:06.224
Кодек: AAC
Кодек/описание: Advanced Audio Codec
Кодек/профиль: LC
Кодек/ID: 40
Частота дискретизации: 48.0 KHz
Каналов: 2 channels
Битрейт: 157 Kbps
Битрейт/тип: Variable
Размер потока: 47.4 MiB (3%)
Метод сжатия: Lossy

Название: [OnlyBlowJob] Andrea Francis (Oral Home Improvement! - 09.12.14)_720

Тип потока: Видео
Длительность: 00:17:58
Кодек: AVC
Кодек/описание: Advanced Video Codec
Кодек/профиль: Main@L3.1
Кодек/ID: avc1
Кодек/CABAC: Yes
Кодек/ReFrames: 3 frames
Размеры изображения: 1280 x 720 (16:9)
Частота кадров: 29.970 fps
Частота кадров/тип: Constant
Размер потока: 835 MiB (97%)
Битрейт: 6 500 Kbps
Битрейт/тип: VBR
Стандарт: NTSC
Цветовое пространство: YUV
Тип развёртки: Progressive
Колориметрия: 4:2:0
Глубина: 8 bits

Тип потока: Звук #1
Язык: English
Длительность: 00:17:58.911
Кодек: AAC
Кодек/описание: Advanced Audio Codec
Кодек/профиль: LC
Кодек/ID: 40
Частота дискретизации: 48.0 KHz
Каналов: 2 channels
Битрейт: 192 Kbps
Битрейт/тип: Variable
Размер потока: 24.4 MiB (3%)
Метод сжатия: Lossy

Название: Christoph's Anal Attraction Andrea Francis

Тип потока: Видео
Длительность: 00:43:59
Кодек: AVC
Кодек/описание: Advanced Video Codec
Кодек/профиль: High@L3.1
Кодек/ID: avc1
Кодек/CABAC: Yes
Кодек/ReFrames: 4 frames
Размеры изображения: 1280 x 720 (16:9)
Частота кадров: 29.970 fps
Частота кадров/тип: Constant
Размер потока: 1.47 GiB (97%)
Битрейт: 4 800 Kbps
Библиотека кодирования: x264 core 107
Цветовое пространство: YUV
Тип развёртки: Progressive
Колориметрия: 4:2:0
Глубина: 8 bits

Тип потока: Звук #1
Длительность: 00:43:59.482
Кодек: AAC
Кодек/описание: Advanced Audio Codec
Кодек/профиль: LC
Кодек/ID: 40
Частота дискретизации: 44.1 KHz
Каналов: 2 channels
Битрейт: 152 Kbps
Битрейт/тип: Variable
Размер потока: 47.8 MiB (3%)
Метод сжатия: Lossy

Название: Perry's DPs 6 Andrea Parker

Тип потока: Видео
Длительность: 00:39:09
Кодек: AVC
Кодек/описание: Advanced Video Codec
Кодек/профиль: High@L3.1
Кодек/ID: avc1
Кодек/CABAC: Yes
Кодек/ReFrames: 4 frames
Размеры изображения: 1280 x 720 (16:9)
Частота кадров: 29.970 fps
Частота кадров/тип: Constant
Размер потока: 1.31 GiB (97%)
Битрейт: 4 800 Kbps
Библиотека кодирования: x264 core 107
Цветовое пространство: YUV
Тип развёртки: Progressive
Колориметрия: 4:2:0
Глубина: 8 bits

Тип потока: Звук #1
Длительность: 00:39:09.024
Кодек: AAC
Кодек/описание: Advanced Audio Codec
Кодек/профиль: LC
Кодек/ID: 40
Частота дискретизации: 44.1 KHz
Каналов: 2 channels
Битрейт: 152 Kbps
Битрейт/тип: Variable
Размер потока: 42.6 MiB (3%)
Метод сжатия: Lossy

Название: [21Naturals.com 21Sextury.com] (Heartbeat v400016 Andrea Francis_720

Тип потока: Альбом
Авторские права: 21sextury.com

Тип потока: Видео
Длительность: 00:18:58
Кодек: VC-1
Кодек/описание: Windows Media Video 9
Кодек/профиль: MP@HL
Кодек/ID: WMV3
Размеры изображения: 1280 x 720 (16:9)
Частота кадров: 25.000 fps
Размер потока: 611 MiB
Битрейт: 4 500 Kbps
Битрейт/тип: CBR
Метод сжатия: Lossy
Цветовое пространство: YUV
Тип развёртки: Progressive
Колориметрия: 4:2:0
Глубина: 8 bits

Тип потока: Звук #1
Язык: English (US)
Длительность: 00:18:58.334
Кодек: WMA
Кодек/ID: 161
Частота дискретизации: 44.1 KHz
Каналов: 2 channels
Битрейт: 96.0 Kbps
Битрейт/тип: Constant
Размер потока: 13.0 MiB (2%)
Глубина: 16 bits

Название: [WoodmanCastingX com] Diora Cooper_720

Тип потока: Видео
Длительность: 01:21:39
Кодек: WMV2
Кодек/описание: Windows Media Video 8
Кодек/ID: WMV2
Размеры изображения: 1280 x 720 (16:9)
Частота кадров: 25.000 fps
Размер потока: 2.74 GiB (93%)
Битрейт: 4 799 Kbps
Глубина: 8 bits

Тип потока: Звук #1
Длительность: 01:21:39.920
Кодек: WMA
Кодек/ID: 161
Частота дискретизации: 44.1 KHz
Каналов: 2 channels
Битрейт: 128 Kbps
Размер потока: 74.8 MiB (2%)
Глубина: 16 bits

Название: [21Naturals.com 21Sextury.com] (Heartbeat v400016 Andrea Francis

Тип потока: Видео
Длительность: 00:18:58
Кодек: AVC
Кодек/описание: Advanced Video Codec
Кодек/профиль: High@L3.0
Кодек/ID: avc1
Кодек/CABAC: Yes
Кодек/ReFrames: 4 frames
Размеры изображения: 640 x 360 (16:9)
Частота кадров: 25.000 fps
Частота кадров/тип: Constant
Размер потока: 217 MiB (92%)
Битрейт: 1 602 Kbps
Цветовое пространство: YUV
Тип развёртки: Progressive
Колориметрия: 4:2:0
Глубина: 8 bits

Тип потока: Звук #1
Язык: English
Длительность: 00:18:58.347
Кодек: AAC
Кодек/описание: Advanced Audio Codec
Кодек/профиль: LC
Кодек/ID: 40
Частота дискретизации: 48.0 KHz
Каналов: 2 channels
Битрейт: 125 Kbps
Битрейт/тип: Variable
Размер потока: 17.0 MiB (7%)
Метод сжатия: Lossy

Название: [AllInternal.com PerfectGonzo.com] Andrea Parker

Тип потока: Видео
Длительность: 00:42:06
Кодек: AVC
Кодек/описание: Advanced Video Codec
Кодек/профиль: Baseline@L3.0
Кодек/ID: avc1
Кодек/CABAC: No
Кодек/ReFrames: 2 frames
Размеры изображения: 480 x 270 (16:9)
Частота кадров: 29.970 fps
Частота кадров/тип: Constant
Размер потока: 374 MiB (88%)
Битрейт: 1 250 Kbps
Битрейт/тип: VBR
Стандарт: NTSC
Цветовое пространство: YUV
Тип развёртки: Progressive
Колориметрия: 4:2:0
Глубина: 8 bits

Тип потока: Звук #1
Язык: English
Длительность: 00:42:06.224
Кодек: AAC
Кодек/описание: Advanced Audio Codec
Кодек/профиль: LC
Кодек/ID: 40
Частота дискретизации: 48.0 KHz
Каналов: 2 channels
Битрейт: 157 Kbps
Битрейт/тип: Variable
Размер потока: 47.4 MiB (11%)
Метод сжатия: Lossy

Название: [Karupspc.com] andrea_parker-solo-3-hd

Тип потока: Видео
Длительность: 00:14:17
Кодек: AVC
Кодек/описание: Advanced Video Codec
Кодек/профиль: Main@L3.1
Кодек/ID: avc1
Кодек/CABAC: No
Кодек/ReFrames: 2 frames
Размеры изображения: 1280 x 720 (16:9)
Частота кадров: 23.976 fps
Частота кадров/тип: Constant
Размер потока: 511 MiB (99%)
Битрейт: 4 999 Kbps
Стандарт: NTSC
Цветовое пространство: YUV
Тип развёртки: Progressive
Колориметрия: 4:2:0
Глубина: 8 bits

Тип потока: Звук #1
Язык: English
Длительность: 00:14:17.165
Кодек: AAC
Кодек/описание: Advanced Audio Codec
Кодек/профиль: LC
Кодек/ID: 40
Частота дискретизации: 44.1 KHz
Каналов: 2 channels
Битрейт: 72.0 Kbps
Битрейт/тип: Variable
Размер потока: 7.36 MiB (1%)
Метод сжатия: Lossy

Название: [MikesApartment.com RealityKings.com] Andrea Francis

Тип потока: Видео
Длительность: 00:49:21
Кодек: AVC
Кодек/описание: Advanced Video Codec
Кодек/профиль: Main@L3.0
Кодек/ID: avc1
Кодек/CABAC: No
Кодек/ReFrames: 6 frames
Размеры изображения: 768 x 432 (16:9)
Частота кадров: 29.970 fps
Частота кадров/тип: Constant
Размер потока: 508 MiB (93%)
Битрейт: 1 438 Kbps
Битрейт/макс: 1 500 Kbps
Битрейт/тип: VBR
Стандарт: Component
Цветовое пространство: YUV
Тип развёртки: Progressive
Колориметрия: 4:2:0
Глубина: 8 bits

Тип потока: Звук #1
Длительность: 00:49:21.710
Кодек: AAC
Кодек/описание: Advanced Audio Codec
Кодек/профиль: LC
Кодек/ID: 40
Частота дискретизации: 32.0 KHz
Каналов: 1 channel
Битрейт: 32.0 Kbps
Битрейт/тип: Variable
Размер потока: 11.3 MiB (2%)
Метод сжатия: Lossy

Название: [OnlyBlowJob] Andrea Francis (Oral Home Improvement! - 09.12.14) rq

Тип потока: Видео
Длительность: 00:17:58
Кодек: AVC
Кодек/описание: Advanced Video Codec
Кодек/профиль: Main@L3.1
Кодек/ID: avc1
Кодек/CABAC: Yes
Кодек/ReFrames: 3 frames
Размеры изображения: 950 x 540 (16:9)
Частота кадров: 29.970 fps
Частота кадров/тип: Constant
Размер потока: 578 MiB (96%)
Битрейт: 4 500 Kbps
Битрейт/тип: VBR
Стандарт: NTSC
Цветовое пространство: YUV
Тип развёртки: Progressive
Колориметрия: 4:2:0
Глубина: 8 bits

Тип потока: Звук #1
Язык: English
Длительность: 00:17:58.911
Кодек: AAC
Кодек/описание: Advanced Audio Codec
Кодек/профиль: LC
Кодек/ID: 40
Частота дискретизации: 48.0 KHz
Каналов: 2 channels
Битрейт: 192 Kbps
Битрейт/тип: Variable
Размер потока: 24.4 MiB (4%)
Метод сжатия: Lossy

Название: [WoodmanCastingX com] Diora Cooper

Тип потока: Видео
Длительность: 01:21:39
Кодек: AVC
Кодек/описание: Advanced Video Codec
Кодек/профиль: High@L3.0
Кодек/ID: avc1
Кодек/CABAC: Yes
Кодек/ReFrames: 2 frames
Размеры изображения: 640 x 360 (16:9)
Частота кадров: 29.970 fps
Частота кадров/тип: Constant
Размер потока: 292 MiB (89%)
Битрейт: 500 Kbps
Битрейт/макс: 1 293 Kbps
Библиотека кодирования: x264 core 129 r2230 1cffe9f
Цветовое пространство: YUV
Тип развёртки: Progressive
Колориметрия: 4:2:0
Глубина: 8 bits

Тип потока: Звук #1
Название: mctemp250017cd08e143c4.mp3#audio - Imported with GPAC 0.5.0-rev4065
Длительность: 01:21:39.575
Кодек: MPEG Audio
Кодек/профиль: Layer 3
Кодек/ID: 69
Частота дискретизации: 24.0 KHz
Каналов: 2 channels
Битрейт: 54.7 Kbps
Битрейт/тип: Variable
Размер потока: 32.0 MiB (10%)
Метод сжатия: Lossy

Название: Christoph's Anal Attraction_Andrea Francis

Тип потока: Видео
Длительность: 00:43:59
Кодек: AVC
Кодек/описание: Advanced Video Codec
Кодек/профиль: High@L3.1
Кодек/ID: avc1
Кодек/CABAC: Yes
Кодек/ReFrames: 4 frames
Размеры изображения: 960 x 544 (16:9)
Частота кадров: 29.970 fps
Частота кадров/тип: Constant
Размер потока: 564 MiB (92%)
Битрейт: 1 800 Kbps
Библиотека кодирования: x264 core 107
Цветовое пространство: YUV
Тип развёртки: Progressive
Колориметрия: 4:2:0
Глубина: 8 bits

Тип потока: Звук #1
Длительность: 00:43:59.482
Кодек: AAC
Кодек/описание: Advanced Audio Codec
Кодек/профиль: LC
Кодек/ID: 40
Частота дискретизации: 44.1 KHz
Каналов: 2 channels
Битрейт: 152 Kbps
Битрейт/тип: Variable
Размер потока: 47.8 MiB (8%)
Метод сжатия: Lossy

Название: MightyMistress.12.10.15.Clara.G.And.Andrea.Parker.Best.Neighbor.XXX

Тип потока: Видео
Длительность: 00:22:26
Кодек: AVC
Кодек/описание: Advanced Video Codec
Кодек/профиль: High@L4.0
Кодек/ID: avc1
Кодек/CABAC: Yes
Кодек/ReFrames: 3 frames
Размеры изображения: 1920 x 1080 (16:9)
Частота кадров: 25.000 fps
Частота кадров/тип: Constant
Размер потока: 964 MiB (97%)
Битрейт: 6 003 Kbps
Стандарт: PAL
Цветовое пространство: YUV
Тип развёртки: Progressive
Колориметрия: 4:2:0
Глубина: 8 bits

Тип потока: Звук #1
Язык: English
Длительность: 00:22:26.901
Кодек: AAC
Кодек/описание: Advanced Audio Codec
Кодек/профиль: LC
Кодек/ID: 40
Частота дискретизации: 48.0 KHz
Каналов: 2 channels
Битрейт: 192 Kbps
Битрейт/тип: Variable
Размер потока: 30.4 MiB (3%)
Метод сжатия: Lossy

Название: Perry's DPs 6 Andrea Parker

Тип потока: Видео
Длительность: 00:39:09
Кодек: AVC
Кодек/описание: Advanced Video Codec
Кодек/профиль: High@L3.1
Кодек/ID: avc1
Кодек/CABAC: Yes
Кодек/ReFrames: 4 frames
Размеры изображения: 960 x 544 (16:9)
Частота кадров: 29.970 fps
Частота кадров/тип: Constant
Размер потока: 500 MiB (92%)
Битрейт: 1 800 Kbps
Библиотека кодирования: x264 core 107
Цветовое пространство: YUV
Тип развёртки: Progressive
Колориметрия: 4:2:0
Глубина: 8 bits

Тип потока: Звук #1
Длительность: 00:39:09.024
Кодек: AAC
Кодек/описание: Advanced Audio Codec
Кодек/профиль: LC
Кодек/ID: 40
Частота дискретизации: 44.1 KHz
Каналов: 2 channels
Битрейт: 152 Kbps
Битрейт/тип: Variable
Размер потока: 42.6 MiB (8%)
Метод сжатия: Lossy

Название: PublicAgent_E102_Andrea_SD

Тип потока: Видео
Длительность: 00:28:49
Кодек: AVC
Кодек/описание: Advanced Video Codec
Кодек/профиль: High@L3.0
Кодек/ID: avc1
Кодек/CABAC: Yes
Кодек/ReFrames: 4 frames
Размеры изображения: 852 x 480 (16:9)
Частота кадров: 24.000 fps
Частота кадров/тип: Constant
Размер потока: 566 MiB (91%)
Битрейт: 2 700 Kbps
Библиотека кодирования: x264 core 120
Цветовое пространство: YUV
Тип развёртки: Progressive
Колориметрия: 4:2:0
Глубина: 8 bits

Тип потока: Звук #1
Язык: English
Длительность: 00:28:49.491
Кодек: AAC
Кодек/описание: Advanced Audio Codec
Кодек/профиль: LC
Кодек/ID: 40
Частота дискретизации: 44.1 KHz
Каналов: 2 channels
Битрейт: 128 Kbps
Битрейт/тип: Constant
Размер потока: 26.4 MiB (4%)
Метод сжатия: Lossy

Название: SapphicErotica se.13.01.20.Lucy, Andrea - Bumlapping Blondes

Тип потока: Видео
Длительность: 00:26:37
Кодек: AVC
Кодек/описание: Advanced Video Codec
Кодек/профиль: Main@L3.1
Кодек/ID: avc1
Кодек/CABAC: Yes
Кодек/ReFrames: 2 frames
Размеры изображения: 1280 x 720 (16:9)
Частота кадров: 29.970 fps
Частота кадров/тип: Variable
Размер потока: 761 MiB (97%)
Битрейт: 4 000 Kbps
Библиотека кодирования: x264 core 112
Цветовое пространство: YUV
Тип развёртки: Progressive
Колориметрия: 4:2:0
Глубина: 8 bits

Тип потока: Звук #1
Длительность: 00:26:37.486
Кодек: AAC
Кодек/описание: Advanced Audio Codec
Кодек/профиль: LC
Кодек/ID: 40
Частота дискретизации: 44.1 KHz
Каналов: 2 channels
Битрейт: 128 Kbps
Битрейт/тип: Variable
Размер потока: 24.4 MiB (3%)
Метод сжатия: Lossy

Название: [JimSlip.com] ANDREA FRANCIS_a_fin_full_of_fun_fullcomplete

Тип потока: Видео
Длительность: 00:26:10
Кодек: VC-1
Кодек/описание: Windows Media Video 9
Кодек/профиль: Main
Кодек/ID: WMV3
Размеры изображения: 1280 x 720 (16:9)
Частота кадров: 25.000 fps
Размер потока: 936 MiB
Битрейт: 5 000 Kbps
Метод сжатия: Lossy
Цветовое пространство: YUV
Тип развёртки: Progressive
Колориметрия: 4:2:0
Глубина: 8 bits

Тип потока: Звук #1
Длительность: 00:26:10.520
Кодек: WMA
Кодек/ID: 161
Частота дискретизации: 44.1 KHz
Каналов: 2 channels
Битрейт: 128 Kbps
Размер потока: 24.0 MiB (3%)
Глубина: 16 bits

Название: [JimSlip.com] ANDREA FRANCIS_naughty_nurse_in_nylons_fullcomplete

Тип потока: Видео
Длительность: 00:29:42
Кодек: VC-1
Кодек/описание: Windows Media Video 9
Кодек/профиль: Main
Кодек/ID: WMV3
Размеры изображения: 1280 x 720 (16:9)
Частота кадров: 25.000 fps
Размер потока: 1.04 GiB (98%)
Битрейт: 5 000 Kbps
Метод сжатия: Lossy
Цветовое пространство: YUV
Тип развёртки: Progressive
Колориметрия: 4:2:0
Глубина: 8 bits

Тип потока: Звук #1
Длительность: 00:29:42.560
Кодек: WMA
Кодек/ID: 161
Частота дискретизации: 44.1 KHz
Каналов: 2 channels
Битрейт: 128 Kbps
Размер потока: 27.2 MiB (3%)
Глубина: 16 bits

Название: [MofosWorldWide.com Mofos.com] Andrea

Тип потока: Видео
Длительность: 00:41:18
Кодек: WMV2
Кодек/описание: Windows Media Video 8
Кодек/ID: WMV2
Размеры изображения: 854 x 480 (16:9)
Частота кадров: 29.970 fps
Размер потока: 746 MiB (91%)
Битрейт: 2 526 Kbps
Глубина: 8 bits

Тип потока: Звук #1
Длительность: 00:41:18.550
Кодек: WMA
Кодек/ID: 161
Частота дискретизации: 48.0 KHz
Каналов: 2 channels
Битрейт: 128 Kbps
Размер потока: 37.8 MiB (5%)
Глубина: 16 bits

Название: [PixAndVideo.com 21Sextury.com] Andrea Francis v200183

Тип потока: Альбом
Авторские права: 21sextury.com

Тип потока: Видео
Длительность: 00:19:25
Кодек: VC-1
Кодек/описание: Windows Media Video 9
Кодек/профиль: MP@HL
Кодек/ID: WMV3
Размеры изображения: 1280 x 720 (16:9)
Частота кадров: 29.970 fps
Размер потока: 625 MiB (97%)
Битрейт: 4 500 Kbps
Битрейт/тип: CBR
Метод сжатия: Lossy
Цветовое пространство: YUV
Тип развёртки: Progressive
Колориметрия: 4:2:0
Глубина: 8 bits

Тип потока: Звук #1
Язык: English (US)
Длительность: 00:19:25.129
Кодек: WMA
Кодек/ID: 161
Частота дискретизации: 44.1 KHz
Каналов: 2 channels
Битрейт: 96.0 Kbps
Битрейт/тип: Constant
Размер потока: 13.3 MiB (2%)
Глубина: 16 bits

Название: Mighty Mistress Andrea Francis , Adriana Russo 22.10

Тип потока: Альбом
Авторские права: 21sextury.com

Тип потока: Видео
Длительность: 00:26:50
Кодек: VC-1
Кодек/описание: Windows Media Video 9
Кодек/профиль: MP@HL
Кодек/ID: WMV3
Размеры изображения: 1280 x 720 (16:9)
Частота кадров: 25.000 fps
Размер потока: 864 MiB (97%)
Битрейт: 4 500 Kbps
Битрейт/тип: CBR
Метод сжатия: Lossy
Цветовое пространство: YUV
Тип развёртки: Progressive
Колориметрия: 4:2:0
Глубина: 8 bits

Тип потока: Звук #1
Язык: English (US)
Длительность: 00:26:50.489
Кодек: WMA
Кодек/ID: 161
Частота дискретизации: 44.1 KHz
Каналов: 2 channels
Битрейт: 96.0 Kbps
Битрейт/тип: Constant
Размер потока: 18.4 MiB (2%)
Глубина: 16 bits
Самый популярный релиз 2012 г.:
Бразильская модель и актриса Suelyn Medeiros в домашнем видео [url]...1566184[/url]
Эксклюзив! [Audio]. Реальные аудиозаписи секса (стоны, крики, мольбы, мат, разговоры) [url]...15590521#15590521[/url]
Эксклюзив!. Радиопередача "Секс в большом городе" с Семеном Чайкой [2007-2012 гг., Audio, Sex Talk, MP3]. Полный архив (575 выпусков). Все что вы хотели узнать о сексе, но боялись спросить.
[url]...1896658[/url]
Трекер:  [ 12-Апр-2015 10:00 ]

Размер .torrent файла 218 KB


Размер: 2 GB
Хэш (hash) релиза: 76d897fd7ab4db4dfcce5221d7be0210263676b7
Подписка на обновления:

Торренты, похожие на Andrea Francis скачать торрент

Форум Название Автор Размер S L Добавлен
Сайтрипы 2013 (HD Video) / SiteRip's 2013 (HD Video) ·· Strapon dominas (99058 / 18-09-2013) [2013, Lesbian, Strap-On, Compilation,720p] (Kathia Nobili , Ashley , Mira Sunset, Clara G., Andrea Francis, Adriana Russo, Brandy Smile, Emma, Sophie Lynx, Candy Love...) Sakura 728121361694 MB 0 0 1432467092

15:31

24-Май-15

Сайтрипы с русскими актрисами 2011-2015 / Russian SiteRip's 2011-2015 ·· Andrea Francis (The Cock Watcher / 09.12.2014 г.) [Blonde, Blowjobs, Cum in mouth, Shaved, Socks, Glory hole, Natural tits, Small tits, Glamour, Medium ass] Sakura 632713560603 MB 0 0 1418203847

13:30

10-Дек-14

Сайтрипы 1991-2010 / SiteRip's 1991-2010 ·· Andrea Francis (Heartbeat / v400016 / 09.12.12) [2012г., Natural Tits, Blonde, Blowjob, Cumshot, European, Hardcore, 720p] Sakura 637640710608 MB 0 0 1362865904

01:51

10-Мар-13

Сайтрипы 1991-2010 / SiteRip's 1991-2010 ·· Andrea Francis (Heartbeat / v400016 / 09.12.12) [2012г., Natural Tits, Blonde, Blowjob, Cumshot, European, Hardcore, 1080p] Sakura 11471997661.07 GB 0 0 1362865892

01:51

10-Мар-13

Сайтрипы 1991-2010 / SiteRip's 1991-2010 ·· Andrea Francis (Heartbeat / v400016 / 09.12.12) [2012г., Natural Tits, Blonde, Blowjob, Cumshot, European, Hardcore] Sakura 246420120235 MB 0 0 1362865181

01:39

10-Мар-13

Сайтрипы 1991-2010 / SiteRip's 1991-2010 ·· Andrea Francis (Flirt at the poolside / v200183 / 18.10.12) [2012г., Anal, Natural Tits, Blonde, Blowjob, Cumshot, Facials, Hardcore, 720p] Sakura 674525050643 MB 0 0 1350911280

17:08

22-Окт-12

Сайтрипы 1991-2010 / SiteRip's 1991-2010 ·· Andrea Francis (Flirt at the poolside / v200183 / 18.10.12) [2012г., Anal, Natural Tits, Blonde, Blowjob, Cumshot, Facials, Hardcore, 1080p] Sakura 11874521061.11 GB 0 0 1350911280

17:08

22-Окт-12

Еще никто не оставлял запись к записи скачать торрент Andrea Francis . Будь первым!

!Обратная связь
//main.js show_panel