Статистика раздачи
Размер:  2 GB   |    Зарегистрирован:  2 года   |    .torrent скачан:  28 раз   |   

Пиры будут получены при скачивании

 

Скачать порно Kanashimi no Belladonna / Belladonna of Sadness / Печальная Белладонна через торрент бесплатно :: UnionPron.org

 
 
Автор Сообщение

Sakura

avatar Sakura


Kanashimi no Belladonna / Belladonna of Sadness / 哀しみのベラドンナ / Печальная Белладонна

Год производства: 1973 г.
Жанр: Ecchi, Drama, Fantasy, Romance
Серии: ep. 1 (Movie)
Продолжительность: 01:29:31
Цензура: Отсутствует (Ecchi)

Язык: Японский
Озвучка: Оригинальная
Режиссер: Yamamoto Eiichi
Автор оригинала: Jules Michelet
Студия: Mushi Productions

Описание RUS: В сельской глубинке средневековой Франции двое влюблённых крестьян, Жан и Жанна, направляются к местному господину за разрешением на брак. Однако налог на венчание резко возрос, жених заплатить не в состоянии, и потому первая брачная ночь с невестой достаётся господину и его свите. Почувствовав себя брошенной Богом, девушка обращается к нечистой силе. Так начинается страшный путь Жанны к адскому костру...

Описание ENG: The obvious and salient feature of this film is the unique way in which it was animated using a blend of still illustrations and full animation. Intended for art house venues rather than a more general audience like the first two Animerama films, Belladonna comes across as by far the more sophisticated and successful production, its strikingly original visuals largely responsible for the film's visceral impact.

Информационные ссылки: AniDB - MAL - World Art - ХентайМаг -

Доп. информация: Очень редкий диск!
Серия состоит из:
1) Sen`ya Ichiya Monogatari / Сказки 1001 ночи (1969г)
[url=...1806240]2) Cleopatra / Клеопатра, королева секса (1970г)[/url]
3) Kanashimi no Belladonna / Печальная Белладонна (1973г)

Качество видео: DVD9
Формат видео: DVD Video
Видео кодек: MPEG2
Аудио кодек: AC3
Видео: 720х480, (4:3), 29,970 кадров/сек, ~ 8547 Кбит/сек, NTSC
Аудио №1: JAP, AC-3, 2 канала, 384 Кбит/сек, 48,0 КГц
Аудио №2: JAP, AC-3, 2 канала, 384 Кбит/сек, 48,0 КГц
Общее
Полное имя : G:\VIDEO_TS\VTS_01_1.VOB
Формат : MPEG-PS
Размер файла : 1024 Мбайт
Продолжительность : 15 м.
Режим общего битрейта : Переменный
Общий поток : 9504 Кбит/сек

Видео
Идентификатор : 224 (0xE0)
Формат : MPEG Video
Версия формата : Version 2
Профиль формата : Main@Main
Параметр BVOP формата : Да
Параметр матрицы формата : Выборочная
Параметр GOP формата : M=3, N=15
Продолжительность : 15 м.
Вид битрейта : Переменный
Битрейт : 8547 Кбит/сек
Максимальный битрейт : 9800 Кбит/сек
Ширина : 720 пикселей
Высота : 480 пикселей
Соотношение сторон : 4:3
Частота кадров : 29,970 кадров/сек
Стандарт вещания : Component
Цветовое пространство : YUV
Субдискретизация насыщенности : 4:2:0
Битовая глубина : 8 бит
Тип развёртки : Чересстрочная
Порядок развёртки : Верхнее поле первое
Метод сжатия : С потерями
Бит/(Пиксели*Кадры) : 0.825
Временной код первого кадра : 01:00:15:01
Оригинал временного кода : Group of pictures header
Размер потока : 921 Мбайт (90%)
Основные цвета : BT.601 NTSC
Характеристики трансфера : BT.601
Коэффициенты матрицы : BT.601

Аудио #1
Идентификатор : 189 (0xBD)-128 (0x80)
Формат : AC-3
Формат/Информация : Audio Coding 3
Расширение режима : CM (complete main)
Параметр Endianness формата : Big
Режим смешивания : DVD-Video
Продолжительность : 15 м.
Вид битрейта : Постоянный
Битрейт : 384 Кбит/сек
Каналы : 2 канала
Расположение каналов : Front: L R
Частота : 48,0 КГц
Битовая глубина : 16 бит
Метод сжатия : С потерями
Размер потока : 41,4 Мбайт (4%)

Аудио #2
Идентификатор : 189 (0xBD)-129 (0x81)
Формат : AC-3
Формат/Информация : Audio Coding 3
Расширение режима : CM (complete main)
Параметр Endianness формата : Big
Режим смешивания : DVD-Video
Продолжительность : 15 м.
Вид битрейта : Постоянный
Битрейт : 384 Кбит/сек
Каналы : 2 канала
Расположение каналов : Front: L R
Частота : 48,0 КГц
Битовая глубина : 16 бит
Метод сжатия : С потерями
Размер потока : 41,4 Мбайт (4%)

Меню
Время раздачи: с 09 до 00.00 (Киев), отдача: 100 кб/с (анальный инет)
1 Большая просьба, помогайте другим скачать (тогда релизов будет больше)
2 Если нет сидов - пишите в лс
3 Если сдохли постеры и скриншоты - пишите в лс
Трекер:  [ 09-Апр-2015 13:00 ]

Размер .torrent файла 19 KB


Размер: 2 GB
Хэш (hash) релиза: acefc67d8f0684a38edcd5910efd1d401ff740ff
Подписка на обновления:

Еще никто не оставлял запись к записи скачать торрент Kanashimi no Belladonna Belladonna of Sadness . Будь первым!

!Обратная связь
//main.js show_panel