Статистика раздачи
Размер:  2 GB   |    Зарегистрирован:  2 года 3 месяца   |    .torrent скачан:  107 раз   |   

Пиры будут получены при скачивании

 

Скачать порно Dousou Kai Again / Class Reunion Again / Porno Tennis Club / Новая встреча одноклассников через торрент бесплатно :: UnionPron.org

 
 
Автор Сообщение

Sakura

avatar Sakura


Dousou Kai Again / Class Reunion Again / Porno Tennis Club / 同窓会again / Новая встреча одноклассников

Год производства: 2002 г.
Жанр: Oral sex, Romance, Straight, Virgin
Серии: ep. 1-2 of 2
Продолжительность: 2x~28 min
Цензура: Отсутствует

Озвучка №1: Японская (Оригинальная)
Озвучка №2: Английская (Профессиональная, полное дублирование)
Субтитры: Английские, французские, немецкие, итальянские

Режиссер: Fukumoto Kan
Автор оригинала: F&C, FC01
Студия: Lemon Heart, Arms, ASM

Описание RUS: Все бывшие ученики теннисного клуба Сакура собираются вместе на встрече выпускников в канун Нового Года. Им всем уже по 20 и Мизино восхищен снова увидеть свою давнюю тайную любовь Татсую. Во время встречи запланирована лыжная прогулка во время которой они все будут гостить в домике матери Мизуно. Внезапно в середине праздника мать Мизуно заболевает, оставляя заботу о проведении праздника на Мизуно. Кажется, что все пропало, но тут на помощь приходить Татсуя...

Описание ENG: The members of the tennis club at Sakura Junior High School. Have a class reunion on New Years Eve. They're all twenty, and Mizuho is happy to get to see Tatsuya again, her secret love. At the reunion, they plan to stay at Mizuho's mother's lodge in the hot spring resort for a ski trip. Unfortunately, however, Mizuho's mother's become ill. She doesn't know whether she should care for her mother or finally give her self to Tatsuya.

Информационные ссылки: AniDB - MAL - World Art - ХентайМаг - ASM
Доп. информация: На основе хентай-игры: Dousoukai ~Again~ (2001)
Спасибо: caifrat

Качество видео: 2x DVD5
Формат видео: DVD Video
Видео кодек: MPEG2
Аудио кодек: AC3
Видео: 720х480, (4:3), 29,970 кадров/сек, ~ 7000 Кбит/сек, NTSC
Аудио №1: JAP, AC-3, 2 канала, 192 Кбит/сек, 48,0 КГц
Аудио №2: ENG, AC-3, 2 канала, 192 Кбит/сек, 48,0 КГц
Доп. материалы: Трейлеры, фотогалерея
Общее
Полное имя : J:\VIDEO_TS\VTS_01_1.VOB
Формат : MPEG-PS
Размер файла : 1024 Мбайт
Продолжительность : 18 м.
Режим общего битрейта : Переменный
Общий поток : 7736 Кбит/сек

Видео
Идентификатор : 224 (0xE0)
Формат : MPEG Video
Версия формата : Version 2
Профиль формата : Main@Main
Параметр BVOP формата : Да
Параметр матрицы формата : Выборочная
Параметр GOP формата : M=3, N=15
Продолжительность : 18 м.
Вид битрейта : Переменный
Битрейт : 7198 Кбит/сек
Максимальный битрейт : 8000 Кбит/сек
Ширина : 720 пикселей
Высота : 480 пикселей
Соотношение сторон : 4:3
Частота кадров : 29,970 кадров/сек
Стандарт вещания : NTSC
Цветовое пространство : YUV
Субдискретизация насыщенности : 4:2:0
Битовая глубина : 8 бит
Тип развёртки : Чересстрочная
Порядок развёртки : Верхнее поле первое
Метод сжатия : С потерями
Бит/(Пиксели*Кадры) : 0.695
Временной код первого кадра : 00:59:59:15
Оригинал временного кода : Group of pictures header
Размер потока : 953 Мбайт (93%)

Аудио #1
Идентификатор : 189 (0xBD)-128 (0x80)
Формат : AC-3
Формат/Информация : Audio Coding 3
Расширение режима : CM (complete main)
Параметр Endianness формата : Big
Режим смешивания : DVD-Video
Продолжительность : 18 м.
Вид битрейта : Постоянный
Битрейт : 192 Кбит/сек
Каналы : 2 канала
Расположение каналов : Front: L R
Частота : 48,0 КГц
Битовая глубина : 16 бит
Метод сжатия : С потерями
Задержка видео : -66 мс.
Размер потока : 25,4 Мбайт (2%)

Аудио #2
Идентификатор : 189 (0xBD)-129 (0x81)
Формат : AC-3
Формат/Информация : Audio Coding 3
Расширение режима : CM (complete main)
Параметр Endianness формата : Big
Режим смешивания : DVD-Video
Продолжительность : 18 м.
Вид битрейта : Постоянный
Битрейт : 192 Кбит/сек
Каналы : 2 канала
Расположение каналов : Front: L R
Частота : 48,0 КГц
Битовая глубина : 16 бит
Метод сжатия : С потерями
Задержка видео : -66 мс.
Размер потока : 25,4 Мбайт (2%)

Текст #1
Идентификатор : 189 (0xBD)-32 (0x20)
Формат : RLE
Формат/Информация : Run-length encoding
Режим смешивания : DVD-Video

Текст #2
Идентификатор : 189 (0xBD)-33 (0x21)
Формат : RLE
Формат/Информация : Run-length encoding
Режим смешивания : DVD-Video

Текст #3
Идентификатор : 189 (0xBD)-34 (0x22)
Формат : RLE
Формат/Информация : Run-length encoding
Режим смешивания : DVD-Video

Текст #4
Идентификатор : 189 (0xBD)-35 (0x23)
Формат : RLE
Формат/Информация : Run-length encoding
Режим смешивания : DVD-Video

Меню
[url=...993794]Там[/url] 2-х дисковое издание от NuTech Digital (R1), перекрученный русский профессиональный (одноголосый) перевод - Здесь 2-х дисковое издание от ASM (оригинальные диски R1), французские, немецкие, итальянские субтитры
Время раздачи: с 09 до 00.00 (Киев), отдача: 100 кб/с (анальный инет)
1 Большая просьба, помогайте другим скачать (тогда релизов будет больше)
2 Если нет сидов - пишите в лс
3 Если сдохли постеры и скриншоты - пишите в лс
Трекер:  [ 01-Апр-2015 13:30 ]

Размер .torrent файла 18 KB


Размер: 2 GB
Хэш (hash) релиза: 8cbaa4451a26e84639387c2788f0f3806c0ad854
Подписка на обновления:

Еще никто не оставлял запись к записи скачать торрент Dousou Kai Again Class Reunion Again . Будь первым!

!Обратная связь
//main.js show_panel