Статистика раздачи
Размер:  2 GB   |    Зарегистрирован:  2 года 8 месяцев   |    .torrent скачан:  172 раза   |   

Пиры будут получены при скачивании

 

Скачать порно Oni Chichi 2: Harvest / Оничичи 2: Плоды / Похотливый папаша 2: Плоды через торрент бесплатно :: UnionPron.org

 
 
Автор Сообщение

Sakura

avatar Sakura


Oni Chichi 2: Harvest / 鬼父2 -harvest- / Оничичи 2: Плоды / Похотливый папаша 2: Плоды

Год производства: 2015 г.
Жанр: Big tits, Oral sex, Titsjob, Incest
Серии: ep. 1
Продолжительность: 1х~30 min
Цензура: Есть

Озвучка: Японская (Оригинальная)

Режиссер: Nobitome Youta
Автор оригинала: Blue Gale
Студия: PoRO

Описание RUS: Отец продолжает трахать своих дочерей.

Описание ENG: The father continues to fuck their daughters.

Информационные ссылки: AniDB - MAL - World Art - ХентайМаг
Доп. информация: На основе хентай-игры: Onichichi 2 (2009)

Качество видео: DVD5
Формат видео: DVD Video
Видео кодек: MPEG2
Аудио кодек: AC3
Видео: 720х480, (16:9), 29,970 кадров/сек, ~ 4600 Кбит/сек, NTSC
Аудио №1: JAP, AC-3, 2 канала, 192 Кбит/сек, 48,0 КГц
Аудио №2: JAP, AC-3, 2 канала, 192 Кбит/сек, 48,0 КГц
Общее
Полное имя : H:\VIDEO_TS\VTS_01_1.VOB
Формат : MPEG-PS
Размер файла : 1024 Мбайт
Продолжительность : 6 м. 10 с.
Общий поток : 23,2 Мбит/сек

Видео
Идентификатор : 224 (0xE0)
Формат : MPEG Video
Версия формата : Version 2
Профиль формата : Main@Main
Параметр BVOP формата : Да
Параметр матрицы формата : Выборочная
Параметр GOP формата : Variable
Format_Settings_PictureStructure : Frame
Продолжительность : 6 м. 10 с.
Битрейт : 22,3 Мбит/сек
Максимальный битрейт : 7200 Кбит/сек
Ширина : 720 пикселей
Высота : 480 пикселей
Соотношение сторон : 16:9
Частота кадров : 29,970 кадров/сек
Стандарт вещания : NTSC
Цветовое пространство : YUV
Субдискретизация насыщенности : 4:2:0
Битовая глубина : 8 бит
Тип развёртки : Чересстрочная
Порядок развёртки : Верхнее поле первое
Метод сжатия : С потерями
Бит/(Пиксели*Кадры) : 2.157
Временной код первого кадра : 01:00:00:00
Оригинал временного кода : Group of pictures header
Размер потока : 987 Мбайт (96%)

Аудио #1
Идентификатор : 189 (0xBD)-128 (0x80)
Формат : AC-3
Формат/Информация : Audio Coding 3
Расширение режима : CM (complete main)
Параметр Endianness формата : Big
Режим смешивания : DVD-Video
Продолжительность : 6 м. 10 с.
Вид битрейта : Постоянный
Битрейт : 192 Кбит/сек
Каналы : 2 канала
Расположение каналов : Front: L R
Частота : 48,0 КГц
Битовая глубина : 16 бит
Метод сжатия : С потерями
Размер потока : 8,47 Мбайт (1%)

Аудио #2
Идентификатор : 189 (0xBD)-129 (0x81)
Формат : AC-3
Формат/Информация : Audio Coding 3
Расширение режима : CM (complete main)
Параметр Endianness формата : Big
Режим смешивания : DVD-Video
Продолжительность : 6 м. 10 с.
Вид битрейта : Постоянный
Битрейт : 192 Кбит/сек
Каналы : 2 канала
Расположение каналов : Front: L R
Частота : 48,0 КГц
Битовая глубина : 16 бит
Метод сжатия : С потерями
Размер потока : 8,47 Мбайт (1%)

Меню
Время раздачи: с 09 до 00.00 (Киев), отдача: 100 кб/с (анальный инет)
1 Большая просьба, помогайте другим скачать (тогда релизов будет больше)
2 Если нет сидов - пишите в лс
3 Если сдохли постеры и скриншоты - пишите в лс
Трекер:  [ 26-Мар-2015 16:30 ]

Размер .torrent файла 16 KB


Размер: 2 GB
Хэш (hash) релиза: 9e0ab9d6a89a78c4c6e0ffa550210b6c0992e92a
Подписка на обновления:

Еще никто не оставлял запись к записи скачать торрент Oni Chichi 2: Harvest Оничичи 2: Плоды . Будь первым!

!Обратная связь
//main.js show_panel