Статистика раздачи
Размер:  2 GB   |    Зарегистрирован:  2 года 2 месяца   |    .torrent скачан:  96 раз   |   

Пиры будут получены при скачивании

 

Скачать порно Запретная наука / Forbidden Science / Сезон: 1 / Серии: 1-13 из 13 через торрент бесплатно :: UnionPron.org

 
 
Автор Сообщение

Sakura

avatar Sakura


Запретная наука / Forbidden Science

Год выпуска: 2009
Страна: Канада
Студия: Dangerous Tomorrows
Жанр: sci-fi, softcore, erotica
Продолжительность: ~00:30

Перевод: Профессиональный (многоголосый закадровый)

Режиссёр: Мелани Орр / Melanie Orr, Клей Боррис / Clay Borris, Джон Куинн / John Quinn

В ролях: Ванесса Брозе, Джоэнн Алдерсон, Леви Фриман, Ноэль Дюбуа, Остин Болл, Эстер Раддай, Ричард Саттон, Мэри Элис ЛеГолт, Кевин Кесар, Сара Сар, Джон Куинн.

Описание: Действие разворачивается в ближайшем будущем вокруг элитной корпорации «4Ever Innovations», чьи молодые и гениальные ученые сохраняют и продают память. Они могут заменить тех, кого мы потеряли, клонами, позволить нам с помощью технологий жить в своих величайших фантазиях: от воссоединения со своими бывшими до создания идеальных любовников - но за глубочайшие желания приходится платить особую цену, секреты «4Ever Innovations» могут стоить вам жизни.



Качество: WEBRip
Формат: AVI
Видео: 608x336, 23.976 fps, XviD ~1024 kbps avg, 0.209 bit/pixel
Аудио: 48 kHz, MPEG Layer 3, 2 ch, ~128 kbps avg
Субтитры: отсутствуют
1. “4Ever”
2. “Adversaries” Part 1
3. “Adversaries” Part 2
4. “Weekend”
5. “Hotzone”
6. “Property” Part 1
7. “Property” Part 2
8. ”Lonely”
9. “Tarot”
10. “Virus”
11. “Erase”
12. “Secrets”
13. ”Home”
Общее
Полное имя                               : D:\Forbidden.Science.S01\Forbidden.Science.S01E01WEBRip.avi
Формат                                   : AVI
Формат/Информация                        : Audio Video Interleave
Размер файла                             : 249 Мбайт
Продолжительность                        : 30 м.
Общий поток                              : 1161 Кбит/сек
Программа кодирования                    : VirtualDubMod 1.5.10.3 | www.virtualdub-fr.org || (build 2550/release)
Библиотека кодирования                   : VirtualDubMod build 2550/release

Видео
Идентификатор                            : 0
Формат                                   : MPEG-4 Visual
Профиль формата                          : Advanced Simple@L5
Параметр BVOP формата                    : 2
Параметр QPel формата                    : Нет
Параметр GMC формата                     : Без точки перехода
Параметр матрицы формата                 : Default (H.263)
Идентификатор кодека                     : XVID
Идентификатор кодека/Подсказка           : XviD
Продолжительность                        : 30 м.
Битрейт                                  : 1024 Кбит/сек
Ширина                                   : 608 пикселей
Высота                                   : 336 пикселей
Соотношение сторон                       : 16:9
Частота кадров                           : 23,976 кадра/сек
Цветовое пространство                    : YUV
Субдискретизация насыщенности            : 4:2:0
Битовая глубина                          : 8 бит
Тип развёртки                            : Прогрессивная
Метод сжатия                             : С потерями
Бит/(Пиксели*Кадры)                      : 0.209
Размер потока                            : 220 Мбайт (88%)
Библиотека кодирования                   : XviD 1.2.1 (UTC 2008-12-04)

Аудио
Идентификатор                            : 1
Формат                                   : MPEG Audio
Версия формата                           : Version 1
Профиль формата                          : Layer 3
Идентификатор кодека                     : 55
Идентификатор кодека/Подсказка           : MP3
Продолжительность                        : 30 м.
Вид битрейта                             : Постоянный
Битрейт                                  : 128 Кбит/сек
Каналы                                   : 2 канала
Частота                                  : 48,0 КГц
Метод сжатия                             : С потерями
Размер потока                            : 27,5 Мбайт (11%)
Выравнивание                             : Соединение по промежуткам
Продолжительность промежутка             : 42  мс. (1,00 видеокадр)
Время предзагрузки промежутка            : 504  мс.
Библиотека кодирования                   : LAME3.99r
Настройки программы                      : -m s -V 4 -q 0 -lowpass 17 -b 128
http://multi-up.com/1040243
Трекер:  [ 26-Мар-2015 01:00 ]

Размер .torrent файла 17 KB


Размер: 2 GB
Хэш (hash) релиза: e159c3a60ef62a5438f943a3f962494f7e6a3479
Подписка на обновления:

Еще никто не оставлял запись к записи скачать торрент Запретная наука Forbidden Science . Будь первым!

!Обратная связь
//main.js show_panel