Статистика раздачи
Размер:  833 MB   |    Зарегистрирован:  1 год 9 месяцев   |    .torrent скачан:  110 раз   |   

Пиры будут получены при скачивании

 

Скачать порно Chloe et le gang du sexe / Sweetwater / Хлоя и половая банда через торрент бесплатно :: UnionPron.org

 
 
Автор Сообщение

Sakura

avatar Sakura


Chloe et le gang du sexe | Sweetwater | Хлоя и половая банда

[url=...1088220] [/url]
Год производства: 2002 г.
Страна: USA | США
Жанр: Feature
Продолжительность: 01:25:26
Язык: Английский | English

Режиссер: Red Ezra
Студия: New Sensations

В ролях:
Actresses
Angel Long [Facial]
[url=...1320583]Chloe Jones[/url] [Facial]
Felecia [LezOnly]
[url=...1088220]Olivia del Rio[/url] [Facial]
Raylin [Facial]
[url=...1059264]Sunrise Adams[/url] [Facial]

Actors
Dillon Day
Julian
Lee Stone
Michael Scorpio

Scene Breakdowns:
Scene 1. [url=...1088220]Olivia del Rio[/url], Dillon Day
Scene 2. [url=...1320583]Chloe Jones[/url], Michael Scorpio
Scene 3. Raylin, Julian
Scene 4. [url=...1320583]Chloe Jones[/url], Felecia
Scene 5. Angel Long, Lee Stone
Scene 6. [url=...1059264]Sunrise Adams[/url], Lee Stone

Описание: 1925 – Prohibition. La guerre des gangs du whiskey fait rage. Un U.S. Marshall est tue..
De nos jours - Arme d’un detecteur, un chasseur de tresors fait une macabre decouverte : des balles de mitraillette et, non loin, le squelette d’un homme.
La belle Chloe possede un don etrange. Mise en contact avec un objet ancien, elle voit apparaitre l’image des personnes qui lui sont liees. C’est ainsi qu’introduite a « Sweetwater », propriete de la descendante du policier assassine, elle a la vision d’une femme dans la plenitude de sa jeunesse qui semble avoir vecu des experiences sexuelles enivrantes.
General
Format : MPEG-PS
File size : 832 MiB
Duration : 42mn 1s
Overall bit rate : 2 768 Kbps
Writing library : encoded by TMPGEnc (ver. 2.54.37.135)
Video #224
ID : 224 (0xE0)
Format : MPEG Video
Format version : Version 1
Format settings, Matrix : Default
Duration : 42mn 1s
Bit rate mode : Constant
Bit rate : 2 466 Kbps
Nominal bit rate : 1 150 Kbps
Width : 320 pixels
Height : 240 pixels
Display aspect ratio : 4:3
Frame rate : 29.970 fps
Scan type : Progressive
Bits/(Pixel*Frame) : 1.071
Stream size : 741 MiB (89%)
Writing library : TMPGEnc 2.54.37.135
Audio #192
ID : 192 (0xC0)
Format : MPEG Audio
Format version : Version 1
Format profile : Layer 2
Duration : 42mn 1s
Bit rate mode : Constant
Bit rate : 192 Kbps
Channel(s) : 2 channels
Sampling rate : 44.1 KHz
Resolution : 16 bits
Stream size : 57.7 MiB (7%)
Качество видео: VHSRip
Формат видео: MPEG
Видео: MPEG-1 Video, 2466 kbps, 29.97 fps, 320x240
Аудио: MPEG-1 Audio layer 2, 192 kbps (CBR), 44.1 kHz, stereo, 1 stream
[url=...500305]Sweetwater [fra] (699 MB)[/url]
Трекер:  [ 25-Мар-2015 15:00 ]

Размер .torrent файла 17 KB


Размер: 833 MB
Хэш (hash) релиза: 9720e9b6ff43116dbb73d9194e906c775e3965a9
Подписка на обновления:

Еще никто не оставлял запись к записи скачать торрент Chloe et le gang du sexe Sweetwater . Будь первым!

!Обратная связь
//main.js show_panel