Статистика раздачи
Размер:  2 GB   |    Зарегистрирован:  1 год 10 месяцев   |    .torrent скачан:  79 раз   |   

Пиры будут получены при скачивании

 

Скачать порно Maki-chan to Nau. / Сейчас с Маки через торрент бесплатно :: UnionPron.org

 
 
Автор Сообщение

Sakura

avatar Sakura


真希ちゃんとなう. | Maki-chan to Nau. | Сейчас с Маки


Год выпуска: 2012
Страна: Япония
Жанр: anal, bdsm, chikan, molester, oral, straight, swimsuit, titsjob, virgins, x-ray, yuri
Продолжительность: >1 эп. 30 мин.
Субтитры: Отсутствуют
Цензура: Присутствует
Режиссёр: Matano Ryuuzou
Студия: Collaboration Works
Описание:
Sanjou Maki is the girl living next door to Sakonji Seiichi. She appears to be well-bred, gifted with both beauty and brains. However, one night, Seiichi sees her masturbating on the veranda... Maki easily admits that she's a dirty girl and jokingly suggests to Seiichi that she should be blackmailed into being his sex-slave.
Информационные ссылки: AniDB || MAL || World Art || ХентайМаг
Исходник: DVD-5
Видео: MPEG2 | NTSC | 16x9 | 720x480 | 7200 Kbps
Аудио JAP: AC-3 | 48000Hz | 192 Kbps | 2ch
01. Lecherous Girl Fainting in Agony - Sanjou Maki Chapter
03. Maki and Yuki`s Extremely Perverted Sex Life
04. The Hole That Is Yet to Be Challenged by the Sisters: The Sanjou `Adventure` Squad Shall `Cum` Again! Chapter
General
Complete name : H:\VIDEO_TS\VTS_01_1.VOB
Format : MPEG-PS
File size : 1 024 MiB
Duration : 19mn 0s
Overall bit rate : 7 528 Kbps

Video
ID : 224 (0xE0)
Format : MPEG Video
Format version : Version 2
Format profile : Main@Main
Format settings, BVOP : Yes
Format settings, Matrix : Custom
Duration : 19mn 0s
Bit rate : 7 200 Kbps
Width : 720 pixels
Height : 480 pixels
Display aspect ratio : 16:9
Frame rate : 29.970 fps
Standard : NTSC
Color space : YUV
Chroma subsampling : 4:2:0
Bit depth : 8 bits
Scan type : Interlaced
Scan order : Top Field First
Compression mode : Lossy
Bits/(Pixel*Frame) : 0.695
Stream size : 977 MiB (95%)

Audio
ID : 189 (0xBD)-128 (0x80)
Format : AC-3
Format/Info : Audio Coding 3
Mode extension : CM (complete main)
Muxing mode : DVD-Video
Duration : 19mn 0s
Bit rate mode : Constant
Bit rate : 192 Kbps
Channel(s) : 2 channels
Channel positions : Front: L R
Sampling rate : 48.0 KHz
Bit depth : 16 bits
Compression mode : Lossy
Stream size : 26.1 MiB (3%)


Исходник: DVD-5
Видео: MPEG2 | NTSC | 16x9 | 720x480 | 7200 Kbps
Аудио JAP #1: AC-3 | 48000Hz | 192 Kbps | 2ch
Аудио JAP #2: AC-3 | 48000Hz | 192 Kbps | 2ch
General
Complete name : I:\VIDEO_TS\VTS_01_1.VOB
Format : MPEG-PS
File size : 1 024 MiB
Duration : 2mn 55s
Overall bit rate : 49.0 Mbps

Video
ID : 224 (0xE0)
Format : MPEG Video
Format version : Version 2
Format profile : Main@Main
Format settings, BVOP : Yes
Format settings, Matrix : Custom
Format settings, GOP : Variable
Format settings, picture structure : Frame
Duration : 2mn 55s
Bit rate : 47.6 Mbps
Maximum bit rate : 7 200 Kbps
Width : 720 pixels
Height : 480 pixels
Display aspect ratio : 16:9
Frame rate : 29.970 fps
Standard : NTSC
Color space : YUV
Chroma subsampling : 4:2:0
Bit depth : 8 bits
Scan type : Interlaced
Scan order : Top Field First
Compression mode : Lossy
Bits/(Pixel*Frame) : 4.597
Time code of first frame : 01:00:00:00
Time code source : Group of pictures header
Stream size : 996 MiB (97%)

Audio #1
ID : 189 (0xBD)-128 (0x80)
Format : AC-3
Format/Info : Audio Coding 3
Mode extension : CM (complete main)
Format settings, Endianness : Big
Muxing mode : DVD-Video
Duration : 2mn 55s
Bit rate mode : Constant
Bit rate : 192 Kbps
Channel(s) : 2 channels
Channel positions : Front: L R
Sampling rate : 48.0 KHz
Bit depth : 16 bits
Compression mode : Lossy
Stream size : 4.01 MiB (0%)

Audio #2
ID : 189 (0xBD)-129 (0x81)
Format : AC-3
Format/Info : Audio Coding 3
Mode extension : CM (complete main)
Format settings, Endianness : Big
Muxing mode : DVD-Video
Duration : 2mn 55s
Bit rate mode : Constant
Bit rate : 192 Kbps
Channel(s) : 2 channels
Channel positions : Front: L R
Sampling rate : 48.0 KHz
Bit depth : 16 bits
Compression mode : Lossy
Stream size : 4.01 MiB (0%)


Исходник: DVD-5
Видео: MPEG2 | NTSC | 16x9 | 720x480 | 7200 Kbps
Аудио JAP #1: AC-3 | 48000Hz | 192 Kbps | 2ch
Аудио JAP #2: AC-3 | 48000Hz | 192 Kbps | 2ch
General
Complete name : I:\VIDEO_TS\VTS_01_1.VOB
Format : MPEG-PS
File size : 1 024 MiB
Duration : 22s 55ms
Overall bit rate : 389 Mbps

Video
ID : 224 (0xE0)
Format : MPEG Video
Format version : Version 2
Format profile : Main@Main
Format settings, BVOP : Yes
Format settings, Matrix : Custom
Format settings, GOP : Variable
Format settings, picture structure : Frame
Duration : 22s 55ms
Bit rate : 381 Mbps
Maximum bit rate : 7 200 Kbps
Width : 720 pixels
Height : 480 pixels
Display aspect ratio : 16:9
Frame rate : 29.970 fps
Standard : NTSC
Color space : YUV
Chroma subsampling : 4:2:0
Bit depth : 8 bits
Scan type : Interlaced
Scan order : Top Field First
Compression mode : Lossy
Bits/(Pixel*Frame) : 36.818
Time code of first frame : 01:00:00:00
Time code source : Group of pictures header
Stream size : 1 003 MiB (98%)

Audio #1
ID : 189 (0xBD)-128 (0x80)
Format : AC-3
Format/Info : Audio Coding 3
Mode extension : CM (complete main)
Format settings, Endianness : Big
Muxing mode : DVD-Video
Duration : 21s 920ms
Bit rate mode : Constant
Bit rate : 192 Kbps
Channel(s) : 2 channels
Channel positions : Front: L R
Sampling rate : 48.0 KHz
Bit depth : 16 bits
Compression mode : Lossy
Stream size : 514 KiB (0%)

Audio #2
ID : 189 (0xBD)-129 (0x81)
Format : AC-3
Format/Info : Audio Coding 3
Mode extension : CM (complete main)
Format settings, Endianness : Big
Muxing mode : DVD-Video
Duration : 21s 920ms
Bit rate mode : Constant
Bit rate : 192 Kbps
Channel(s) : 2 channels
Channel positions : Front: L R
Sampling rate : 48.0 KHz
Bit depth : 16 bits
Compression mode : Lossy
Stream size : 514 KiB (0%)
[url=...1005692#23]Чем воспроизводить образ диска формата *.ISO[/url]
Трекер:  [ 23-Мар-2015 21:30 ]

Размер .torrent файла 52 KB


Размер: 2 GB
Хэш (hash) релиза: aab6430633b557f6cd7433a6c8adb850d8da03a8
Подписка на обновления:

Еще никто не оставлял запись к записи скачать торрент Maki-chan to Nau. Сейчас с Маки . Будь первым!

!Обратная связь
//main.js show_panel