Статистика раздачи
Размер:  501 MB   |    Зарегистрирован:  1 год 11 месяцев   |    .torrent скачан:  79 раз   |   

Пиры будут получены при скачивании

 

Скачать порно Iinari! Saimin Kanojo / Покорность! Загипнотизированная подружка через торрент бесплатно :: UnionPron.org

 
 
Автор Сообщение

Sakura

avatar Sakura


Iinari! Saimin Kanojo / いいなり! 催眠彼女 / Покорность! Загипнотизированная подружка

Год производства: 2015 г.
Жанр: Oral sex, School, Rape, Students
Серии: ep. 1 of 2
Продолжительность: 1х~16 min + 4 min трейлеры
Цензура: Есть

Озвучка: Японская (Оригинальная)

Автор оригинала: CourregesA
Студия: Mary Jane

Описание RUS: Школьнику на телефон пришла ссылка на программу для гипноза и он решил опробовать её на своей однокласснице с предсказуемым результатом.

Описание ENG: Student on the phone send a link to the program for hypnosis and he decided to try it on his classmate with predictable results.

Информационные ссылки: AniDB - MAL - World Art - ХентайМаг
Доп. информация: На основе хентай-игры: Iinari! Saimin Kanojo (2013)

Качество видео: DVD5
Формат видео: DVD Video
Видео кодек: MPEG2
Аудио кодек: AC3
Видео: 720х480, (16:9), 29,970 кадров/сек, ~ 3200 Кбит/сек, NTSC
Аудио: JAP, AC-3, 2 канала, 256 Кбит/сек, 48,0 КГц
Общее
Полное имя : H:\VIDEO_TS\VTS_01_1.VOB
Формат : MPEG-PS
Размер файла : 498 Мбайт
Продолжительность : 22 с.
Режим общего битрейта : Переменный
Общий поток : 189 Мбит/сек

Видео
Идентификатор : 224 (0xE0)
Формат : MPEG Video
Версия формата : Version 2
Профиль формата : Main@Main
Параметр BVOP формата : Да
Параметр матрицы формата : Выборочная
Параметр GOP формата : Variable
Format_Settings_PictureStructure : Frame
Продолжительность : 33 мс.
Вид битрейта : Переменный
Битрейт : 185 Мбит/сек
Максимальный битрейт : 8830 Кбит/сек
Ширина : 720 пикселей
Высота : 480 пикселей
Соотношение сторон : 16:9
Частота кадров : 29,970 кадров/сек
Стандарт вещания : NTSC
Цветовое пространство : YUV
Субдискретизация насыщенности : 4:2:0
Битовая глубина : 8 бит
Тип развёртки : Чересстрочная
Порядок развёртки : Верхнее поле первое
Метод сжатия : С потерями
Бит/(Пиксели*Кадры) : 17.889
Временной код первого кадра : 00:00:00:00
Оригинал временного кода : Group of pictures header
Размер потока : 755 Кбайт (0%)
Основные цвета : BT.601 NTSC
Характеристики трансфера : BT.601
Коэффициенты матрицы : BT.601
Gop_OpenClosed_FirstFrame : Closed

Аудио
Идентификатор : 189 (0xBD)-128 (0x80)
Формат : AC-3
Формат/Информация : Audio Coding 3
Расширение режима : CM (complete main)
Параметр Endianness формата : Big
Режим смешивания : DVD-Video
Продолжительность : 22 с.
Вид битрейта : Постоянный
Битрейт : 256 Кбит/сек
Каналы : 2 канала
Расположение каналов : Front: L R
Частота : 48,0 КГц
Битовая глубина : 16 бит
Метод сжатия : С потерями
Размер потока : 690 Кбайт (0%)

Меню
Время раздачи: с 09 до 00.00 (Киев), отдача: 100 кб/с (анальный инет)
1 Большая просьба, помогайте другим скачать (тогда релизов будет больше)
2 Если нет сидов - пишите в лс
3 Если сдохли постеры и скриншоты - пишите в лс
Трекер:  [ 21-Мар-2015 12:30 ]

Размер .torrent файла 20 KB


Размер: 501 MB
Хэш (hash) релиза: 90a9a88f136ed248d5bb8a5eb7751b494aa62558
Подписка на обновления:

Торренты, похожие на Iinari! Saimin Kanojo Покорность! Загипнотизированная подружка скачать торрент

Форум Название Автор Размер S L Добавлен
Хентай: основной подраздел / Hentai: main subsection ·· Iinari! Saimin Kanojo / Покорность! Загипнотизированная подружка (Mary Jane) (ep. 1-2 of 2) [cen] [2015 г. School, Students, Virgin, Incest, Spanking, Rape, Oral sex, Anal sex, DVDRip] [jap / eng / rus] Sakura 281653809269 MB 0 0 1431708457

20:47

15-Май-15

Хентай: основной подраздел / Hentai: main subsection ·· Iinari! Saimin Kanojo / Покорность! Загипнотизированная подружка (Mary Jane) (ep. 1-2 of 2) [cen] [2015 г. School, Students, Virgin, Spanking, Rape, Oral sex, DVDRip] [jap / eng (1) / rus (1)] Sakura 281621085269 MB 0 0 1430685122

00:32

4-Май-15

Хентай: основной подраздел / Hentai: main subsection ·· Iinari! Saimin Kanojo / Покорность! Загипнотизированная подружка (Mary Jane) (ep. 1 of 2) [cen] [2015 г. School, Students, Virgin, Spanking, Rape, Oral sex, DVDRip] [jap / eng] Sakura 162012203155 MB 0 0 1424716404

22:33

23-Фев-15

Хентай: основной подраздел / Hentai: main subsection ·· Iinari! Saimin Kanojo / Покорность! Загипнотизированная подружка (Mary Jane) (ep. 1 of 2) [cen] [2015 г. School, Students, Teachers, Oral sex, DVDRip] [jap] Sakura 161997485154 MB 0 0 1423649221

14:07

11-Фев-15

Еще никто не оставлял запись к записи скачать торрент Iinari! Saimin Kanojo Покорность! Загипнотизированная подружка . Будь первым!

!Обратная связь
//main.js show_panel