Статистика раздачи
Размер:  376 MB   |    Зарегистрирован:  2 года 8 месяцев   |    .torrent скачан:  514 раз   |   

Пиры будут получены при скачивании

 

Скачать порно Инна и Таня, видео через торрент бесплатно :: UnionPron.org

 
 
Автор Сообщение

Sakura

avatar Sakura


Инна и Таня, видео

Жанр: Amateur
Описание: Видео прекрасной Инны и ее подруги. Нарезка купаний Инны, два клипа на основе видео и фото, сделанные ее друзьями и два видео со скрытой камеры на пляже.
Количество видео: 5
Качество видео:: CamRip
Формат видео: AVI, MP4

Доп. информация: ВНИМАНИЕ!!! ТОЛЬКО ЭРОТИКА!!!

Фото: [url]...1974293[/url]
Complete name : Inna_all.avi
Format : AVI
Format/Info : Audio Video Interleave
File size : 170 MiB
Duration : 9mn 13s
Overall bit rate : 2 575 Kbps
Writing library : Boilsoft AVI tool build 1/release

Video
ID : 0
Format : MPEG-4 Visual
Format profile : Advanced Simple@L5
Format settings, BVOP : 2
Format settings, QPel : No
Format settings, GMC : No warppoints
Format settings, Matrix : Default (H.263)
Muxing mode : Packed bitstream
Codec ID : XVID
Codec ID/Hint : XviD
Duration : 9mn 13s
Bit rate : 2 501 Kbps
Width : 1 280 pixels
Height : 720 pixels
Display aspect ratio : 16:9
Frame rate : 25.000 fps
Color space : YUV
Chroma subsampling : 4:2:0
Bit depth : 8 bits
Scan type : Progressive
Compression mode : Lossy
Bits/(Pixel*Frame) : 0.109
Stream size : 165 MiB (97%)
Writing library : XviD 65

Audio
ID : 1
Format : MPEG Audio
Format version : Version 2
Format profile : Layer 3
Mode : Joint stereo
Mode extension : Intensity Stereo + MS Stereo
Codec ID : 55
Codec ID/Hint : MP3
Duration : 9mn 13s
Bit rate mode : Constant
Bit rate : 64.0 Kbps
Channel(s) : 2 channels
Sampling rate : 22.05 KHz
Compression mode : Lossy
Stream size : 4.20 MiB (2%)
Alignment : Split accross interleaves
Complete name : Inna_beach.avi
Format : AVI
Format/Info : Audio Video Interleave
File size : 59.4 MiB
Duration : 3mn 13s
Overall bit rate : 2 569 Kbps
Writing library : VirtualDub build 35491/release

Video
ID : 0
Format : MPEG-4 Visual
Format profile : Advanced Simple@L5
Format settings, BVOP : 2
Format settings, QPel : No
Format settings, GMC : No warppoints
Format settings, Matrix : Default (H.263)
Muxing mode : Packed bitstream
Codec ID : XVID
Codec ID/Hint : XviD
Duration : 3mn 13s
Bit rate : 2 494 Kbps
Width : 1 280 pixels
Height : 720 pixels
Display aspect ratio : 16:9
Frame rate : 29.970 fps
Color space : YUV
Chroma subsampling : 4:2:0
Bit depth : 8 bits
Scan type : Progressive
Compression mode : Lossy
Bits/(Pixel*Frame) : 0.090
Stream size : 57.6 MiB (97%)
Writing library : XviD 65

Audio
ID : 1
Format : MPEG Audio
Format version : Version 2
Format profile : Layer 3
Mode : Joint stereo
Mode extension : MS Stereo
Codec ID : 55
Codec ID/Hint : MP3
Duration : 3mn 13s
Bit rate mode : Constant
Bit rate : 64.0 Kbps
Channel(s) : 2 channels
Sampling rate : 24.0 KHz
Compression mode : Lossy
Stream size : 1.48 MiB (2%)
Alignment : Split accross interleaves
Interleave, duration : 33 ms (1.00 video frame)
Interleave, preload duration : 500 ms
Complete name : Inna_clip1.mp4
Format : MPEG-4
Format profile : Base Media / Version 2
Codec ID : mp42
File size : 53.0 MiB
Duration : 2mn 46s
Overall bit rate mode : Variable
Overall bit rate : 2 663 Kbps
Encoded date : UTC 2013-08-03 15:52:56
Tagged date : UTC 2013-08-03 15:52:56

Video
ID : 1
Format : AVC
Format/Info : Advanced Video Codec
Format profile : High@L3.1
Format settings, CABAC : Yes
Format settings, ReFrames : 4 frames
Codec ID : avc1
Codec ID/Info : Advanced Video Coding
Duration : 2mn 46s
Bit rate : 2 500 Kbps
Width : 1 280 pixels
Height : 720 pixels
Display aspect ratio : 16:9
Frame rate mode : Constant
Frame rate : 25.000 fps
Color space : YUV
Chroma subsampling : 4:2:0
Bit depth : 8 bits
Scan type : Progressive
Bits/(Pixel*Frame) : 0.109
Stream size : 49.8 MiB (94%)
Writing library : x264 core 129 r2245 bc13772

Audio
ID : 2
Format : AAC
Format/Info : Advanced Audio Codec
Format profile : LC
Codec ID : 40
Duration : 2mn 46s
Source duration : 2mn 46s
Bit rate mode : Variable
Bit rate : 157 Kbps
Channel(s) : 2 channels
Channel positions : Front: L R
Sampling rate : 48.0 KHz
Compression mode : Lossy
Stream size : 3.13 MiB (6%)
Source stream size : 3.13 MiB (6%)
Encoded date : UTC 2013-08-03 15:52:56
Tagged date : UTC 2013-08-03 15:52:56
Complete name : Inna_clip2.mp4
Format : MPEG-4
Format profile : Base Media / Version 2
Codec ID : mp42
File size : 35.3 MiB
Duration : 2mn 44s
Overall bit rate mode : Variable
Overall bit rate : 1 807 Kbps
Encoded date : UTC 2014-02-07 03:30:55
Tagged date : UTC 2014-02-07 03:30:55
gsst : 0
gstd : 164095
gssd : BD4713486HH1424709792587897
gshh : r3---sn-03guxaxjvh-3c2d.googlevideo.com

Video
ID : 1
Format : AVC
Format/Info : Advanced Video Codec
Format profile : High@L3.1
Format settings, CABAC : Yes
Format settings, ReFrames : 1 frame
Format settings, GOP : M=1, N=60
Codec ID : avc1
Codec ID/Info : Advanced Video Coding
Duration : 2mn 44s
Bit rate : 1 612 Kbps
Maximum bit rate : 3 547 Kbps
Width : 1 280 pixels
Height : 720 pixels
Display aspect ratio : 16:9
Frame rate mode : Constant
Frame rate : 30.000 fps
Color space : YUV
Chroma subsampling : 4:2:0
Bit depth : 8 bits
Scan type : Progressive
Bits/(Pixel*Frame) : 0.058
Stream size : 31.5 MiB (89%)
Tagged date : UTC 2014-02-07 03:30:56

Audio
ID : 2
Format : AAC
Format/Info : Advanced Audio Codec
Format profile : LC
Codec ID : 40
Duration : 2mn 44s
Bit rate mode : Variable
Bit rate : 192 Kbps
Maximum bit rate : 205 Kbps
Channel(s) : 2 channels
Channel positions : Front: L R
Sampling rate : 44.1 KHz
Compression mode : Lossy
Stream size : 3.75 MiB (11%)
Title : IsoMedia File Produced by Google, 5-11-2011
Encoded date : UTC 2014-02-07 03:30:55
Tagged date : UTC 2014-02-07 03:30:56
Complete name : Тanya.mp4
Format : Flash Video
File size : 60.6 MiB
Duration : 3mn 58s
Overall bit rate : 2 129 Kbps
Tagged date : UTC 2013-12-05 12:39:33
Tagging application : flvtool++ (Facebook, Motion project, dweatherford)

Video
Format : AVC
Format/Info : Advanced Video Codec
Format profile : High@L3.1
Format settings, CABAC : Yes
Format settings, ReFrames : 4 frames
Codec ID : 7
Duration : 3mn 58s
Bit rate : 2 048 Kbps
Width : 1 280 pixels
Height : 720 pixels
Display aspect ratio : 16:9
Frame rate mode : Constant
Frame rate : 29.970 fps
Color space : YUV
Chroma subsampling : 4:2:0
Bit depth : 8 bits
Scan type : Progressive
Bits/(Pixel*Frame) : 0.074
Stream size : 58.5 MiB (97%)
Writing library : x264 core 119

Audio
Format : AAC
Format/Info : Advanced Audio Codec
Format profile : LC
Codec ID : 10
Duration : 3mn 58s
Bit rate : 64.9 Kbps
Channel(s) : 2 channels
Channel positions : Front: L R
Sampling rate : 48.0 KHz
Compression mode : Lossy
Stream size : 1.85 MiB (3%)
Трекер:  [ 21-Мар-2015 12:30 ]

Размер .torrent файла 15 KB


Размер: 376 MB
Хэш (hash) релиза: 266aff10e242d762bb31bc55d637c44fa913237f
Подписка на обновления:

Еще никто не оставлял запись к записи скачать торрент Инна и Таня, видео . Будь первым!

!Обратная связь
//main.js show_panel