Статистика раздачи
Размер:  2 GB   |    Зарегистрирован:  2 года 4 месяца   |    .torrent скачан:  81 раз   |   

Пиры будут получены при скачивании

 

Скачать порно Nosewasure The Animation: Onna Kyoushi Chuuzenji Ayano no Inutsu na Kore kara / Вставить и забыть через торрент бесплатно :: UnionPron.org

 
 
Автор Сообщение

Sakura

avatar Sakura


Nosewasure The Animation: Onna Kyoushi Chuuzenji Ayano no Inutsu na Kore kara / のせわすれ THE ANIMATION 女教師中善寺綾乃の淫鬱なこれから / Вставить и забыть

Год производства: 2015 г.
Жанр: Big tits, Oral sex Titsjob, School, Yuri, Students, Teachers
Серии: ep. 1-2 of 2
Продолжительность: 2х~17 min
Цензура: Есть

Озвучка: Японская (Оригинальная)

Режиссер: Kondou Takashi
Автор оригинала: Shiwasu no Okina
Студия: MS Pictures, AniMan

Описание RUS: Главная героиня - Аяно Тюдзэндзи, третий год преподает в школе «Святого Джонса» и вот уже полгода живет половой жизнью с Юи, одной из своих учениц. Аяно – лесбиянка. До Юи у Аяно уже были две неудавшиеся любовные истории, и впервые она решилась на взаимоотношения с девушкой по возрасту гораздо младше себя. Свои отношения парочка держит втайне от всех. Но размеренная жизнь любовниц нарушается флешкой, которую Аяно обнаруживает в мусорном баке школьного клуба. На флешке находились фотографии женщины с членом, которая занималась сексом с разными партнершами. Дело в том, что эта женщина была одной из «бывших» Аяно, и подобного «украшения» между ее ног в то время не было. К тому же, откуда эти фотографии взялись именно в ее школе? Настало время ворошить прошлое…
Встретившись с бывшей пассией в баре, Аяно с удивлением удостоверяется, что член между ее ног вполне натуральный. Возникают резонные вопросы: «Какого черта, и каким образом?» Операция? Нет. Дело в том, что в школе Аяно учится парень по имени Коки Морикаку, возглавляющий клуб черной магии. И сия магия – его рук дело. Недолго думая, учительница обращается за помощью к странному ученику, ибо мужской член между ног уже давно был ее несбыточной мечтой (если вы решитесь на прочтения манги, обратите внимание, какие именно заклинания, а вернее, на каком языке, читает их Коки). Магический ритуал пролетел как одно мгновение, и Аяно захотела узнать: «А как собственно, это включается?» Оказывается, Коки «забыл» предупредить женщину, что член на месте ее клитора вырастет, только если несколько раз оросить его мужским семенем. И не любым семенем, а спермой непосредственно из подлого организма самого Коки.
Перед учительницей встает тяжкая дилемма. Продолжить отношения с любовницей, как ни в чем не бывало, или же предаваться отвратительному акту с мужчиной, дабы изведать безграничные возможности от новых возможностей в постели с любимой…

Описание ENG: The main character - Ayano Chuzenji, the third year of teaching at the school "St. Johns" and now six months is sexually active with Yui, one of his students. Ayano - lesbian. Until Yui in Ayano already had two failed love stories, and the first time she decided on a relationship with a girl much younger than age itself. Their relationship the couple keeps secret from everyone. But measured life lovers broken stick, which Ayano finds in the trash school club. On a flash drive were photos of a woman with a member who has sex with different partners. The fact that this woman was one of the "former" Ayano, and such "decorations" between her legs at the time was not. In addition, where these photos came from was in her school? It is time to stir up the past...
Met with former passion in the bar, Ayano surprised to certify that cock between her legs completely natural. A reasonable question arises: "What the hell, and how?" Operation? No. The fact that the school is learning Ayano guy named Koki Morikaku, who heads the club of black magic. And this magic - his handiwork. Without thinking, the teacher asks for help to the strange pupil, for a man's penis between his legs for a long time it was a pipe dream (if you decide to read manga, note what kind of spell, or rather, in what language, reads them Koki). Magic ritual flew like a flash, and Ayano wanted to know: "What actually is turned on?" It turns out that Koki "forgot" to warn women that a member on the site of her clitoris will grow only if several times to irrigate his male seed. And not any seed, and the sperm directly from the body of the dastardly Koki.
Teacher stands in front of a heavy dilemma. To continue the relationship with his mistress, as if nothing had happened, or indulge in abominable act with a man in order to come to know the infinite possibilities of the new features in bed with your favorite...

Информационные ссылки: AniDB - MAL - World Art - ХентайМаг
Доп. информация: На основе хентай-манги

Качество видео: 2х DVD5
Формат видео: DVD Video
Видео кодек: MPEG2
Аудио кодек: AC3
Видео: 720х480, (16:9), 29,970 кадров/сек, ~ 4200 Кбит/сек, NTSC
Аудио: JAP, AC-3, 2 канала, 128-192 Кбит/сек, 48,0 КГц
Общее
Полное имя : H:\VIDEO_TS\VTS_01_1.VOB
Формат : MPEG-PS
Размер файла : 1024 Мбайт
Продолжительность : 8 м. 44 с.
Режим общего битрейта : Переменный
Общий поток : 16,4 Мбит/сек

Видео
Идентификатор : 224 (0xE0)
Формат : MPEG Video
Версия формата : Version 2
Профиль формата : Main@Main
Параметр BVOP формата : Да
Параметр матрицы формата : Выборочная
Параметр GOP формата : Variable
Format_Settings_PictureStructure : Frame
Продолжительность : 8 м. 44 с.
Вид битрейта : Переменный
Битрейт : 15,9 Мбит/сек
Максимальный битрейт : 8000 Кбит/сек
Ширина : 720 пикселей
Высота : 480 пикселей
Соотношение сторон : 16:9
Частота кадров : 29,970 кадров/сек
Стандарт вещания : NTSC
Цветовое пространство : YUV
Субдискретизация насыщенности : 4:2:0
Битовая глубина : 8 бит
Тип развёртки : Чересстрочная
Порядок развёртки : Верхнее поле первое
Метод сжатия : С потерями
Бит/(Пиксели*Кадры) : 1.538
Временной код первого кадра : 00:00:00:00
Оригинал временного кода : Group of pictures header
Размер потока : 996 Мбайт (97%)
Основные цвета : BT.601 NTSC
Характеристики трансфера : BT.601
Коэффициенты матрицы : BT.601

Аудио
Идентификатор : 189 (0xBD)-128 (0x80)
Формат : AC-3
Формат/Информация : Audio Coding 3
Расширение режима : CM (complete main)
Параметр Endianness формата : Big
Режим смешивания : DVD-Video
Продолжительность : 8 м. 44 с.
Вид битрейта : Постоянный
Битрейт : 128 Кбит/сек
Каналы : 2 канала
Расположение каналов : Front: L R
Частота : 48,0 КГц
Битовая глубина : 16 бит
Метод сжатия : С потерями
Размер потока : 8,00 Мбайт (1%)

Меню
Время раздачи: с 09 до 00.00 (Киев), отдача: 100 кб/с (анальный инет)
1 Большая просьба, помогайте другим скачать (тогда релизов будет больше)
2 Если нет сидов - пишите в лс
3 Если сдохли постеры и скриншоты - пишите в лс
Трекер:  [ 20-Мар-2015 17:30 ]

Размер .torrent файла 11 KB


Размер: 2 GB
Хэш (hash) релиза: 6e86df138a713305c15c1c3fe6d336888946f20f
Подписка на обновления:

Еще никто не оставлял запись к записи скачать торрент Nosewasure The Animation: Onna Kyoushi Chuuzenji Ayano no Inutsu na Kore kara Вставить и забыть . Будь первым!

!Обратная связь
//main.js show_panel