Статистика раздачи
Размер:  2 GB   |    Зарегистрирован:  2 года 7 месяцев   |    .torrent скачан:  283 раза   |   

Пиры будут получены при скачивании

 

Скачать порно Milana Fox через торрент бесплатно :: UnionPron.org

 
 
Автор Сообщение

Sakura

avatar Sakura


Milana Fox (Amy A, Cali, Haily, Hannah, Hannah D, Kate, Lika) (25 роликов)

Год производства: 2014 г.
Жанр: Straight, Teen, Hardcore, Anal, Oral
Описание: Собрал что смог.
http://www.pornteengirl.com/model/milana-fox.html

Доп. информация: Скриншоты в раздаче. В папках 1080 и 720 копии роликов в высоком разрешении.
Имя файла: [18XGirls.com] Ariadna, Hannah_1080p.wmv
Формат файла: .wmv (Windows Media)
Размер файла: 806.49 MB
Длительность: 23mn 0s
Навигация по главам: Нет
Битрейт (все потоки): 4 902 Kbps
Битрейт (все потоки, максимальный): 6 812 Kbps
Тип битрейта (все потоки): Variable
Файл создан: UTC 2013-06-10 14:55:53.258
Обложка: Отсутствует

Название: [18XGirls.com] Ariadna, Hannah_1080p

Тип потока: Видео
Длительность: 00:23:00
Кодек: VC-1
Кодек/профиль: Advanced@L3
Кодек/ID: WVC1
Размеры изображения: 1920 x 1080 (16:9)
Частота кадров: 23.976 fps
Размер потока: 782 MiB (97%)
Битрейт: 4 750 Kbps
Битрейт/тип: VBR
Метод сжатия: Lossy
Цветовое пространство: YUV
Тип развёртки: Progressive
Колориметрия: 4:2:0
Глубина: 8 bits

Тип потока: Звук #1
Длительность: 00:23:00.175
Кодек: WMA
Кодек/профиль: Pro
Кодек/ID: 162
Частота дискретизации: 44.1 KHz
Каналов: 2 channels
Битрейт: 128 Kbps
Битрейт/тип: Constant
Размер потока: 21.1 MiB (3%)
Глубина: 24 bits

Имя файла: [18XGirls.com] Hannah - Gets Her Pussy Licked And Drilled_1080p.wmv
Формат файла: .wmv (Windows Media)
Размер файла: 770.09 MB
Длительность: 21mn 57s
Навигация по главам: Нет
Битрейт (все потоки): 4 902 Kbps
Битрейт (все потоки, максимальный): 8 364 Kbps
Тип битрейта (все потоки): Variable
Файл создан: UTC 2013-05-02 00:57:14.510
Обложка: Отсутствует

Название: [18XGirls.com] Hannah - Gets Her Pussy Licked And Drilled_1080p

Тип потока: Видео
Длительность: 00:21:57
Кодек: VC-1
Кодек/профиль: Advanced@L3
Кодек/ID: WVC1
Размеры изображения: 1920 x 1080 (16:9)
Частота кадров: 23.976 fps
Размер потока: 746 MiB (97%)
Битрейт: 4 750 Kbps
Битрейт/тип: VBR
Метод сжатия: Lossy
Цветовое пространство: YUV
Тип развёртки: Progressive
Колориметрия: 4:2:0
Глубина: 8 bits

Тип потока: Звук #1
Длительность: 00:21:57.862
Кодек: WMA
Кодек/профиль: Pro
Кодек/ID: 162
Частота дискретизации: 44.1 KHz
Каналов: 2 channels
Битрейт: 128 Kbps
Битрейт/тип: Constant
Размер потока: 20.1 MiB (3%)
Глубина: 24 bits

Имя файла: [Dirty-Coach.com TeenMegaWorld.net] Milana Fox_1080p.wmv
Формат файла: .wmv (Windows Media)
Размер файла: 1.21 GB
Длительность: 20mn 40s
Навигация по главам: Нет
Битрейт (все потоки): 8 352 Kbps
Битрейт (все потоки, максимальный): 8 384 Kbps
Тип битрейта (все потоки): Constant
Файл создан: UTC 2013-05-07 09:58:36.680
Обложка: Отсутствует

Исполнитель: Royal-Cash.com
Название: Royal-Cash.com

Тип потока: Альбом
Авторские права: Royal-Cash.com

Тип потока: Видео
Длительность: 00:20:40
Кодек: VC-1
Кодек/описание: Windows Media Video 9
Кодек/профиль: MP@HL
Кодек/ID: WMV3
Размеры изображения: 1920 x 1080 (16:9)
Частота кадров: 25.000 fps
Размер потока: 1.18 GiB (98%)
Битрейт: 8 192 Kbps
Битрейт/тип: CBR
Метод сжатия: Lossy
Цветовое пространство: YUV
Тип развёртки: Progressive
Колориметрия: 4:2:0
Глубина: 8 bits

Тип потока: Звук #1
Язык: Russian
Длительность: 00:20:40.826
Кодек: WMA
Кодек/ID: 161
Частота дискретизации: 44.1 KHz
Каналов: 2 channels
Битрейт: 128 Kbps
Битрейт/тип: Constant
Размер потока: 18.9 MiB (2%)
Глубина: 16 bits

Имя файла: [EpicSexPassion.com EpicSex.com] Cali_1080p.mp4
Формат файла: .mp4 (MPEG-4)
Размер файла: 1.67 GB
Длительность: 23mn 40s
Навигация по главам: Нет
Битрейт (все потоки): 10.1 Mbps
Тип битрейта (все потоки): Constant
Файл создан: UTC 2013-06-20 07:51:15
Обложка: Отсутствует

Название: [EpicSexPassion.com EpicSex.com] Cali_1080p

Тип потока: Видео
Длительность: 00:23:40
Кодек: AVC
Кодек/описание: Advanced Video Codec
Кодек/профиль: Main@L4.0
Кодек/ID: avc1
Кодек/CABAC: Yes
Кодек/ReFrames: 3 frames
Размеры изображения: 1920 x 1080 (16:9)
Частота кадров: 23.976 fps
Частота кадров/тип: Constant
Размер потока: 1.65 GiB (99%)
Битрейт: 10 000 Kbps
Битрейт/тип: CBR
Стандарт: NTSC
Цветовое пространство: YUV
Тип развёртки: Progressive
Колориметрия: 4:2:0
Глубина: 8 bits

Тип потока: Звук #1
Язык: English
Длительность: 00:23:40.249
Кодек: AAC
Кодек/описание: Advanced Audio Codec
Кодек/профиль: LC
Кодек/ID: 40
Частота дискретизации: 44.1 KHz
Каналов: channel0
Битрейт: 128 Kbps
Битрейт/тип: Constant
Размер потока: 21.7 MiB (1%)
Метод сжатия: Lossy

Имя файла: [EuroTeenErotica.com DDFNetwork.com] Milana Fox.mp4
Формат файла: .mp4 (MPEG-4)
Размер файла: 1.25 GB
Длительность: 20mn 50s
Навигация по главам: Нет
Битрейт (все потоки): 8 611 Kbps
Тип битрейта (все потоки): Variable
Файл создан: UTC 2013-10-11 15:52:30
Обложка: Отсутствует

Название: [EuroTeenErotica.com DDFNetwork.com] Milana Fox

Тип потока: Видео
Длительность: 00:20:50
Кодек: AVC
Кодек/описание: Advanced Video Codec
Кодек/профиль: High@L4.0
Кодек/ID: avc1
Кодек/CABAC: Yes
Кодек/ReFrames: 3 frames
Размеры изображения: 1920 x 1080 (16:9)
Частота кадров: 29.970 fps
Частота кадров/тип: Constant
Размер потока: 1.23 GiB (98%)
Битрейт: 8 416 Kbps
Стандарт: NTSC
Цветовое пространство: YUV
Тип развёртки: Progressive
Колориметрия: 4:2:0
Глубина: 8 bits

Тип потока: Звук #1
Язык: English
Длительность: 00:20:50.884
Кодек: AAC
Кодек/описание: Advanced Audio Codec
Кодек/профиль: LC
Кодек/ID: 40
Частота дискретизации: 48.0 KHz
Каналов: 2 channels
Битрейт: 192 Kbps
Битрейт/тип: Variable
Размер потока: 28.2 MiB (2%)
Метод сжатия: Lossy

Имя файла: [FatalGirls.com] Hannah_1080p.mp4
Формат файла: .mp4 (MPEG-4)
Размер файла: 1.65 GB
Длительность: 23mn 22s
Навигация по главам: Нет
Битрейт (все потоки): 10.1 Mbps
Тип битрейта (все потоки): Variable
Файл создан: UTC 2013-07-18 05:40:11
Использовалась библиотека: Apple QuickTime
Обложка: Отсутствует

Название: [FatalGirls.com] Hannah_1080p

Тип потока: Видео
Длительность: 00:23:22
Кодек: AVC
Кодек/описание: Advanced Video Codec
Кодек/профиль: Main@L4.0
Кодек/ID: avc1
Кодек/CABAC: No
Кодек/ReFrames: 3 frames
Размеры изображения: 1920 x 1080 (16:9)
Частота кадров: 23.976 fps
Частота кадров/тип: Constant
Размер потока: 1.57 GiB (95%)
Битрейт: 9 595 Kbps
Битрейт/макс: 10.0 Mbps
Битрейт/тип: VBR
Стандарт: Component
Цветовое пространство: YUV
Тип развёртки: Progressive
Колориметрия: 4:2:0
Глубина: 8 bits

Тип потока: Звук #1
Язык: English
Длительность: 00:23:22.033
Кодек: AAC
Кодек/описание: Advanced Audio Codec
Кодек/профиль: LC
Кодек/ID: 40
Частота дискретизации: 44.1 KHz
Каналов: 2 channels
Битрейт: 128 Kbps
Битрейт/тип: Variable
Размер потока: 21.4 MiB (1%)
Метод сжатия: Lossy

Имя файла: [HandsOnHardcore.com DDFProd.com] Milana Fox_1080p.mp4
Формат файла: .mp4 (MPEG-4)
Размер файла: 1.35 GB
Длительность: 22mn 10s
Навигация по главам: Нет
Битрейт (все потоки): 8 685 Kbps
Тип битрейта (все потоки): Variable
Файл создан: UTC 2013-06-05 11:48:51
Обложка: Отсутствует

Название: [HandsOnHardcore.com DDFProd.com] Milana Fox_1080p

Тип потока: Видео
Длительность: 00:22:10
Кодек: AVC
Кодек/описание: Advanced Video Codec
Кодек/профиль: High@L4.0
Кодек/ID: avc1
Кодек/CABAC: Yes
Кодек/ReFrames: 3 frames
Размеры изображения: 1920 x 1080 (16:9)
Частота кадров: 29.970 fps
Частота кадров/тип: Constant
Размер потока: 1.31 GiB (98%)
Битрейт: 8 500 Kbps
Битрейт/тип: CBR
Стандарт: NTSC
Цветовое пространство: YUV
Тип развёртки: Progressive
Колориметрия: 4:2:0
Глубина: 8 bits

Тип потока: Звук #1
Язык: English
Длительность: 00:22:10.230
Кодек: AAC
Кодек/описание: Advanced Audio Codec
Кодек/профиль: LC
Кодек/ID: 40
Частота дискретизации: 48.0 KHz
Каналов: 2 channels
Битрейт: 192 Kbps
Битрейт/тип: Variable
Размер потока: 30.0 MiB (2%)
Метод сжатия: Lossy

Имя файла: ButtPlays.com 21Sextury.com_Milana Fox _Toys'r'fun_ v600030_1080p .wmv
Формат файла: .wmv (Windows Media)
Размер файла: 2.24 GB
Длительность: 39mn 19s
Навигация по главам: Нет
Битрейт (все потоки): 8 157 Kbps
Битрейт (все потоки, максимальный): 8 162 Kbps
Тип битрейта (все потоки): Constant
Файл создан: UTC 2013-04-10 11:47:33.597
Обложка: Отсутствует

Название: ButtPlays.com 21Sextury.com_Milana Fox _Toys'r'fun_ v600030_1080p

Тип потока: Альбом
Авторские права: 21sextury.com

Тип потока: Видео
Длительность: 00:39:19
Кодек: VC-1
Кодек/описание: Windows Media Video 9
Кодек/профиль: Main
Кодек/ID: WMV3
Размеры изображения: 1920 x 1080 (16:9)
Частота кадров: 50.000 fps
Размер потока: 2.20 GiB (98%)
Битрейт: 8 000 Kbps
Битрейт/тип: CBR
Метод сжатия: Lossy
Цветовое пространство: YUV
Тип развёртки: Progressive
Колориметрия: 4:2:0
Глубина: 8 bits

Тип потока: Звук #1
Язык: English (US)
Длительность: 00:39:19.889
Кодек: WMA
Кодек/ID: 161
Частота дискретизации: 44.1 KHz
Каналов: 2 channels
Битрейт: 96.0 Kbps
Битрейт/тип: Constant
Размер потока: 27.0 MiB (1%)
Глубина: 16 bits

Имя файла: Private.com_Milana Fox - Сцена из Private Specials 77_1080p.mp4
Формат файла: .mp4 (MPEG-4)
Размер файла: 1.05 GB
Длительность: 33mn 31s
Навигация по главам: Нет
Битрейт (все потоки): 4 481 Kbps
Тип битрейта (все потоки): Variable
Файл создан: UTC 2013-06-27 06:49:59
Создан при помощи: My MP4Box GUI 0.5.6.0 <http://my-mp4box-gui.zymichost.com>
Обложка: Отсутствует

Название: Imported with GPAC 0.4.6-DEV (internal rev. 5)

Тип потока: Видео
Длительность: 00:33:31
Кодек: AVC
Кодек/описание: Advanced Video Codec
Кодек/профиль: High@L4.0
Кодек/ID: avc1
Кодек/CABAC: Yes
Кодек/ReFrames: 4 frames
Размеры изображения: 1920 x 1080 (16:9)
Частота кадров: 25.000 fps
Частота кадров/тип: Constant
Размер потока: 1 001 MiB (93%)
Битрейт: 4 176 Kbps
Битрейт/макс: 4 600 Kbps
Битрейт/тип: VBR
Цветовое пространство: YUV
Тип развёртки: Progressive
Колориметрия: 4:2:0
Глубина: 8 bits

Тип потока: Звук #1
Язык: English
Длительность: 00:33:31.413
Кодек: AAC
Кодек/описание: Advanced Audio Codec
Кодек/профиль: LC
Кодек/ID: 40
Частота дискретизации: 48.0 KHz
Каналов: 2 channels
Битрейт: 132 Kbps
Битрейт/тип: Variable
Размер потока: 31.1 MiB (3%)
Метод сжатия: Lossy

Имя файла: WakeUpNFuck.com_PierreWoodman.com_Milana Fox (Wunf 110)_1080p.mov
Формат файла: .mov (MPEG-4)
Размер файла: 5.23 GB
Длительность: 1h 12mn
Навигация по главам: Нет
Битрейт (все потоки): 10.4 Mbps
Файл создан: UTC 2013-11-22 08:30:48
Использовалась библиотека: Apple QuickTime
Обложка: Отсутствует

Название: MILANA FOX - WUNF 98

Тип потока: Альбом
Альбом/исполнитель: Pierre Woodman

Тип потока: Видео
Длительность: 01:12:02
Кодек: AVC
Кодек/описание: Advanced Video Codec
Кодек/профиль: Main@L4.0
Кодек/ID: avc1
Кодек/CABAC: No
Кодек/ReFrames: 2 frames
Размеры изображения: 1888 x 1062 (16:9)
Частота кадров: 25.000 fps
Частота кадров/тип: Constant
Размер потока: 5.16 GiB (99%)
Битрейт: 10.3 Mbps
Цветовое пространство: YUV
Тип развёртки: Progressive
Колориметрия: 4:2:0
Глубина: 8 bits

Тип потока: Звук #1
Язык: English
Длительность: 01:12:02.480
Кодек: AAC
Кодек/описание: Advanced Audio Codec
Кодек/профиль: LC
Кодек/ID: 40
Частота дискретизации: 48.0 KHz
Каналов: 2 channels
Битрейт: 128 Kbps
Битрейт/тип: Constant
Размер потока: 67.0 MiB (1%)
Метод сжатия: Lossy

Имя файла: [FirstAnalQuest.com] Milana Fox_720.mp4
Формат файла: .mp4 (MPEG-4)
Размер файла: 1.02 GB
Длительность: 30mn 33s
Навигация по главам: Нет
Битрейт (все потоки): 4 795 Kbps
Тип битрейта (все потоки): Variable
Файл создан: UTC 2013-04-14 08:44:39
Обложка: Отсутствует

Название: [FirstAnalQuest.com] Milana Fox_720

Тип потока: Видео
Длительность: 00:30:33
Кодек: AVC
Кодек/описание: Advanced Video Codec
Кодек/профиль: High@L4.0
Кодек/ID: avc1
Кодек/CABAC: Yes
Кодек/ReFrames: 2 frames
Размеры изображения: 1280 x 720 (16:9)
Частота кадров: 29.970 fps
Частота кадров/тип: Constant
Размер потока: 1 019 MiB (97%)
Битрейт: 4 662 Kbps
Битрейт/макс: 16.0 Mbps
Битрейт/тип: VBR
Цветовое пространство: YUV
Тип развёртки: Progressive
Колориметрия: 4:2:0
Глубина: 8 bits

Тип потока: Звук #1
Язык: English
Длительность: 00:30:33.472
Кодек: AAC
Кодек/описание: Advanced Audio Codec
Кодек/профиль: LC
Кодек/ID: 40
Частота дискретизации: 48.0 KHz
Каналов: 2 channels
Битрейт: 128 Kbps
Битрейт/тип: Constant
Размер потока: 28.0 MiB (3%)
Метод сжатия: Lossy

Имя файла: [HandsOnHardcore.com DDFProd.com] Milana Fox_720.mp4
Формат файла: .mp4 (MPEG-4)
Размер файла: 663.82 MB
Длительность: 22mn 10s
Навигация по главам: Нет
Битрейт (все потоки): 4 186 Kbps
Тип битрейта (все потоки): Variable
Файл создан: UTC 2013-06-05 12:03:15
Обложка: Отсутствует

Название: [HandsOnHardcore.com DDFProd.com] Milana Fox_720

Тип потока: Видео
Длительность: 00:22:10
Кодек: AVC
Кодек/описание: Advanced Video Codec
Кодек/профиль: Main@L3.1
Кодек/ID: avc1
Кодек/CABAC: Yes
Кодек/ReFrames: 3 frames
Размеры изображения: 1280 x 720 (16:9)
Частота кадров: 29.970 fps
Частота кадров/тип: Constant
Размер потока: 633 MiB (95%)
Битрейт: 4 000 Kbps
Битрейт/тип: CBR
Стандарт: NTSC
Цветовое пространство: YUV
Тип развёртки: Progressive
Колориметрия: 4:2:0
Глубина: 8 bits

Тип потока: Звук #1
Язык: English
Длительность: 00:22:10.230
Кодек: AAC
Кодек/описание: Advanced Audio Codec
Кодек/профиль: LC
Кодек/ID: 40
Частота дискретизации: 48.0 KHz
Каналов: 2 channels
Битрейт: 192 Kbps
Битрейт/тип: Variable
Размер потока: 30.0 MiB (5%)
Метод сжатия: Lossy

Имя файла: [HardcoreGangBang.com Kink.com] Milana Fox_720.mp4
Формат файла: .mp4 (MPEG-4)
Размер файла: 2.02 GB
Длительность: 56mn 25s
Навигация по главам: Нет
Битрейт (все потоки): 5 134 Kbps
Тип битрейта (все потоки): Variable
Создан при помощи: Lavf55.12.102
Обложка: Отсутствует

Название: Downloaded from RARBG.COM

Тип потока: Альбом
Комментарий: Downloaded from RARBG.COM

Тип потока: Видео
Длительность: 00:56:25
Кодек: AVC
Кодек/описание: Advanced Video Codec
Кодек/профиль: High@L3.2
Кодек/ID: avc1
Кодек/CABAC: Yes
Кодек/ReFrames: 2 frames
Размеры изображения: 1280 x 720 (16:9)
Частота кадров: 29.970 fps
Частота кадров/тип: Constant
Размер потока: 1.97 GiB (97%)
Битрейт: 5 000 Kbps
Битрейт/макс: 7 000 Kbps
Битрейт/тип: VBR
Стандарт: NTSC
Цветовое пространство: YUV
Тип развёртки: Progressive
Колориметрия: 4:2:0
Глубина: 8 bits

Тип потока: Звук #1
Язык: English
Длительность: 00:56:25.331
Кодек: AAC
Кодек/описание: Advanced Audio Codec
Кодек/профиль: LC
Кодек/ID: 40
Частота дискретизации: 44.1 KHz
Каналов: 2 channels
Битрейт: 125 Kbps
Битрейт/тип: Constant
Размер потока: 50.6 MiB (2%)
Метод сжатия: Lossy

Имя файла: [Nubiles-Porn.com] Milana Fox_720p.wmv
Формат файла: .wmv (Windows Media)
Размер файла: 612.31 MB
Длительность: 23mn 22s
Навигация по главам: Нет
Битрейт (все потоки): 3 663 Kbps
Битрейт (все потоки, максимальный): 3 628 Kbps
Тип битрейта (все потоки): Constant
Файл создан: UTC 1970-01-01 00:00:00.000
Создан при помощи: TMPGEnc Video Mastering Works 5 Version. 5.1.1.52
Обложка: Отсутствует

Название: Downloaded from RARBG.COM

Тип потока: Видео
Длительность: 00:23:22
Кодек: VC-1
Кодек/описание: Windows Media Video 9
Кодек/профиль: Main
Кодек/ID: WMV3
Размеры изображения: 1280 x 720 (16:9)
Частота кадров: 29.970 fps
Размер потока: 565 MiB (92%)
Битрейт: 3 381 Kbps
Метод сжатия: Lossy
Цветовое пространство: YUV
Тип развёртки: Progressive
Колориметрия: 4:2:0
Глубина: 8 bits

Тип потока: Звук #1
Длительность: 00:23:22.211
Кодек: WMA
Кодек/ID: 161
Частота дискретизации: 48.0 KHz
Каналов: 2 channels
Битрейт: 128 Kbps
Размер потока: 21.4 MiB (3%)
Глубина: 16 bits

Имя файла: ButtPlays.com 21Sextury.com_Milana Fox _Toys'r'fun_ v600030_720.wmv
Формат файла: .wmv (Windows Media)
Размер файла: 1.27 GB
Длительность: 39mn 19s
Навигация по главам: Нет
Битрейт (все потоки): 4 636 Kbps
Битрейт (все потоки, максимальный): 4 637 Kbps
Тип битрейта (все потоки): Constant
Файл создан: UTC 2013-04-10 10:33:31.208
Обложка: Отсутствует

Название: ButtPlays.com 21Sextury.com_Milana Fox _Toys'r'fun_ v600030_720

Тип потока: Альбом
Авторские права: 21sextury.com

Тип потока: Видео
Длительность: 00:39:19
Кодек: VC-1
Кодек/описание: Windows Media Video 9
Кодек/профиль: MP@HL
Кодек/ID: WMV3
Размеры изображения: 1280 x 720 (16:9)
Частота кадров: 50.000 fps
Размер потока: 1.24 GiB (97%)
Битрейт: 4 500 Kbps
Битрейт/тип: CBR
Метод сжатия: Lossy
Цветовое пространство: YUV
Тип развёртки: Progressive
Колориметрия: 4:2:0
Глубина: 8 bits

Тип потока: Звук #1
Язык: English (US)
Длительность: 00:39:19.889
Кодек: WMA
Кодек/ID: 161
Частота дискретизации: 44.1 KHz
Каналов: 2 channels
Битрейт: 96.0 Kbps
Битрейт/тип: Constant
Размер потока: 27.0 MiB (2%)
Глубина: 16 bits

Имя файла: EverythingButt.com_Kink.com_Roxana Trip and Milana Fox_720.mp4
Формат файла: .mp4 (MPEG-4)
Размер файла: 1.02 GB
Длительность: 28mn 28s
Навигация по главам: Нет
Битрейт (все потоки): 5 108 Kbps
Тип битрейта (все потоки): Variable
Файл создан: UTC 2014-04-01 02:09:25
Обложка: Отсутствует

Название: EverythingButt.com_Kink.com_Roxana Trip and Milana Fox_720

Тип потока: Видео
Длительность: 00:28:28
Кодек: AVC
Кодек/описание: Advanced Video Codec
Кодек/профиль: High@L3.2
Кодек/ID: avc1
Кодек/CABAC: Yes
Кодек/ReFrames: 2 frames
Размеры изображения: 1280 x 720 (16:9)
Частота кадров: 29.970 fps
Частота кадров/тип: Constant
Размер потока: 1 013 MiB (97%)
Битрейт: 4 974 Kbps
Битрейт/макс: 7 000 Kbps
Битрейт/тип: VBR
Цветовое пространство: YUV
Тип развёртки: Progressive
Колориметрия: 4:2:0
Глубина: 8 bits

Тип потока: Звук #1
Длительность: 00:28:28.037
Кодек: AAC
Кодек/описание: Advanced Audio Codec
Кодек/профиль: LC
Кодек/ID: 40
Частота дискретизации: 44.1 KHz
Каналов: 2 channels
Битрейт: 128 Kbps
Битрейт/тип: Variable
Размер потока: 25.6 MiB (2%)
Метод сжатия: Lossy

Имя файла: FirstAnalQuest.com_Milana Fox.720.mp4
Формат файла: .mp4 (MPEG-4)
Размер файла: 903.26 MB
Длительность: 25mn 7s
Навигация по главам: Нет
Битрейт (все потоки): 5 027 Kbps
Файл создан: UTC 2013-06-12 05:36:38
Обложка: Отсутствует

Название: Обработчик видео Apple

Тип потока: Видео
Длительность: 00:25:07
Кодек: AVC
Кодек/описание: Advanced Video Codec
Кодек/профиль: Main@L3.1
Кодек/ID: avc1
Кодек/CABAC: No
Кодек/ReFrames: 2 frames
Размеры изображения: 1280 x 720 (16:9)
Частота кадров: 29.970 fps
Частота кадров/тип: Constant
Размер потока: 844 MiB (93%)
Битрейт: 4 698 Kbps
Цветовое пространство: YUV
Тип развёртки: Progressive
Колориметрия: 4:2:0
Глубина: 8 bits

Тип потока: Звук #1
Язык: English
Название: Ћбработчик звука Apple
Длительность: 00:25:07.273
Кодек: AAC
Кодек/описание: Advanced Audio Codec
Кодек/профиль: LC
Кодек/ID: 40
Частота дискретизации: 44.1 KHz
Каналов: 2 channels
Битрейт: 128 Kbps
Битрейт/тип: Constant
Размер потока: 22.3 MiB (2%)
Метод сжатия: Lossy

Имя файла: FirstAnalQuest.com_Milana Fox.720.mp4
Формат файла: .mp4 (MPEG-4)
Размер файла: 903.26 MB
Длительность: 25mn 7s
Навигация по главам: Нет
Битрейт (все потоки): 5 027 Kbps
Файл создан: UTC 2013-06-12 05:36:38
Обложка: Отсутствует

Название: Ћбработчик видео Apple

Тип потока: Видео
Длительность: 00:25:07
Кодек: AVC
Кодек/описание: Advanced Video Codec
Кодек/профиль: Main@L3.1
Кодек/ID: avc1
Кодек/CABAC: No
Кодек/ReFrames: 2 frames
Размеры изображения: 1280 x 720 (16:9)
Частота кадров: 29.970 fps
Частота кадров/тип: Constant
Размер потока: 844 MiB (93%)
Битрейт: 4 698 Kbps
Цветовое пространство: YUV
Тип развёртки: Progressive
Колориметрия: 4:2:0
Глубина: 8 bits

Тип потока: Звук #1
Язык: English
Название: Ћбработчик звука Apple
Длительность: 00:25:07.273
Кодек: AAC
Кодек/описание: Advanced Audio Codec
Кодек/профиль: LC
Кодек/ID: 40
Частота дискретизации: 44.1 KHz
Каналов: 2 channels
Битрейт: 128 Kbps
Битрейт/тип: Constant
Размер потока: 22.3 MiB (2%)
Метод сжатия: Lossy

Имя файла: WakeUpNFuck.com_PierreWoodman.com_Milana Fox_720p.wmv
Формат файла: .wmv (Windows Media)
Размер файла: 1.85 GB
Длительность: 1h 12mn
Навигация по главам: Нет
Битрейт (все потоки): 3 680 Kbps
Битрейт (все потоки, максимальный): 3 628 Kbps
Файл создан: UTC 1970-01-01 00:00:00.000
Обложка: Отсутствует

Исполнитель: Pierre Woodman
Название: MILANA FOX - WUNF 98

Тип потока: Видео
Длительность: 01:12:02
Кодек: WMV2
Кодек/описание: Windows Media Video 8
Кодек/ID: WMV2
Размеры изображения: 1280 x 720 (16:9)
Частота кадров: 25.000 fps
Размер потока: 1.71 GiB (92%)
Битрейт: 3 397 Kbps
Глубина: 8 bits

Тип потока: Звук #1
Длительность: 01:12:02.533
Кодек: WMA
Кодек/ID: 161
Частота дискретизации: 44.1 KHz
Каналов: 2 channels
Битрейт: 128 Kbps
Размер потока: 66.0 MiB (3%)
Глубина: 16 bits

Имя файла: [18XGirls.com] Hannah & Ariadna - Explore Their Lesbian CuriocitiesS_SD.mp4
Формат файла: .mp4 (MPEG-4)
Размер файла: 277.64 MB
Длительность: 23mn 0s
Навигация по главам: Нет
Битрейт (все потоки): 1 687 Kbps
Тип битрейта (все потоки): Variable
Файл создан: UTC 2013-06-09 15:47:36
Создан при помощи: Sorenson Squeeze
Обложка: Отсутствует

Название: [18XGirls.com] Hannah & Ariadna - Explore Their Lesbian CuriocitiesS_SD

Тип потока: Альбом
Комментарий: Encoded by

Тип потока: Видео
Длительность: 00:23:00
Кодек: AVC
Кодек/описание: Advanced Video Codec
Кодек/профиль: Main@L3.0
Кодек/ID: avc1
Кодек/CABAC: No
Кодек/ReFrames: 2 frames
Размеры изображения: 640 x 360 (16:9)
Частота кадров: 23.976 fps
Частота кадров/тип: Variable
Размер потока: 246 MiB (89%)
Битрейт: 1 494 Kbps
Битрейт/макс: 2 000 Kbps
Битрейт/тип: VBR
Стандарт: NTSC
Цветовое пространство: YUV
Тип развёртки: Progressive
Колориметрия: 4:2:0
Глубина: 8 bits

Тип потока: Звук #1
Длительность: 00:23:00.170
Кодек: AAC
Кодек/описание: Advanced Audio Codec
Кодек/профиль: LC
Кодек/ID: 40
Частота дискретизации: 44.1 KHz
Каналов: 2 channels
Битрейт: 96.0 Kbps
Битрейт/тип: Variable
Размер потока: 15.8 MiB (6%)
Метод сжатия: Lossy

Имя файла: [18XGirls.com]Hannah - Gets Her Pussy Licked And Drilled_SD.mp4
Формат файла: .mp4 (MPEG-4)
Размер файла: 271.03 MB
Длительность: 21mn 57s
Навигация по главам: Нет
Битрейт (все потоки): 1 725 Kbps
Тип битрейта (все потоки): Variable
Файл создан: UTC 2013-05-01 03:20:10
Создан при помощи: Sorenson Squeeze
Обложка: Отсутствует

Название: [18XGirls.com]Hannah - Gets Her Pussy Licked And Drilled_SD

Тип потока: Альбом
Комментарий: Encoded by

Тип потока: Видео
Длительность: 00:21:57
Кодек: AVC
Кодек/описание: Advanced Video Codec
Кодек/профиль: Main@L3.0
Кодек/ID: avc1
Кодек/CABAC: No
Кодек/ReFrames: 2 frames
Размеры изображения: 640 x 360 (16:9)
Частота кадров: 23.976 fps
Частота кадров/тип: Variable
Размер потока: 241 MiB (89%)
Битрейт: 1 531 Kbps
Битрейт/макс: 2 000 Kbps
Битрейт/тип: VBR
Стандарт: NTSC
Цветовое пространство: YUV
Тип развёртки: Progressive
Колориметрия: 4:2:0
Глубина: 8 bits

Тип потока: Звук #1
Длительность: 00:21:57.872
Кодек: AAC
Кодек/описание: Advanced Audio Codec
Кодек/профиль: LC
Кодек/ID: 40
Частота дискретизации: 44.1 KHz
Каналов: 2 channels
Битрейт: 96.0 Kbps
Битрейт/тип: Variable
Размер потока: 15.1 MiB (6%)
Метод сжатия: Lossy

Имя файла: [Dirty-Coach.com TeenMegaWorld.net] Milana Fox_SD.mp4
Формат файла: .mp4 (MPEG-4)
Размер файла: 156.52 MB
Длительность: 20mn 40s
Навигация по главам: Нет
Битрейт (все потоки): 1 058 Kbps
Тип битрейта (все потоки): Variable
Файл создан: UTC 2015-03-08 13:45:20
Обложка: Отсутствует

Название: [Dirty-Coach.com TeenMegaWorld.net] Milana Fox_SD

Тип потока: Видео
Длительность: 00:20:40
Кодек: AVC
Кодек/описание: Advanced Video Codec
Кодек/профиль: High@L3.0
Кодек/ID: avc1
Кодек/CABAC: Yes
Кодек/ReFrames: 2 frames
Размеры изображения: 800 x 480 (16:9)
Частота кадров: 25.000 fps
Частота кадров/тип: Constant
Размер потока: 148 MiB (94%)
Битрейт: 1 000 Kbps
Битрейт/макс: 2 169 Kbps
Библиотека кодирования: x264 core 129 r2230 1cffe9f
Цветовое пространство: YUV
Тип развёртки: Progressive
Колориметрия: 4:2:0
Глубина: 8 bits
Настройки кодирования: cabac=1 / ref=2 / deblock=1:0:0 / analyse=0x3:0x113 / me=hex / subme=6 / psy=1 / psy_rd=1.00:0.00 / mixed_ref=1 / me_range=16 / chroma_me=1 / trellis=1 / 8x8dct=1 / cqm=0 / deadzone=21,11 / fast_pskip=1 / chroma_qp_offset=-2 / threads=5 / lookahead_threads=1 / sliced_threads=0 / nr=0 / decimate=1 / interlaced=0 / bluray_compat=0 / constrained_intra=0 / bframes=1 / b_pyramid=0 / b_adapt=1 / b_bias=0 / direct=1 / weightb=1 / open_gop=0 / weightp=2 / keyint=250 / keyint_min=25 / scenecut=40 / intra_refresh=0 / rc_lookahead=30 / rc=2pass / mbtree=1 / bitrate=1000 / ratetol=1.0 / qcomp=0.60 / qpmin=0 / qpmax=69 / qpstep=4 / cplxblur=20.0 / qblur=0.5 / ip_ratio=1.40 / aq=1:1.00

Тип потока: Звук #1
Длительность: 00:20:40.967
Кодек: AAC
Кодек/описание: Advanced Audio Codec
Кодек/профиль: HE-AACv2 / HE-AAC / LC
Кодек/ID: 40
Частота дискретизации: 44.1 KHz / 44.1 KHz / 22.05 KHz
Каналов: 2 channels / 1 channel / 1 channel
Битрейт: 54.9 Kbps
Битрейт/тип: Variable
Размер потока: 8.13 MiB (5%)
Метод сжатия: Lossy

Имя файла: [EpicSexPassion.com EpicSex.com] Cali_SD.mp4
Формат файла: .mp4 (MPEG-4)
Размер файла: 282.38 MB
Длительность: 23mn 15s
Навигация по главам: Нет
Битрейт (все потоки): 1 697 Kbps
Тип битрейта (все потоки): Variable
Файл создан: UTC 2013-07-09 19:18:43
Создан при помощи: Sorenson Squeeze
Обложка: Отсутствует

Название: [EpicSexPassion.com EpicSex.com] Cali_SD

Тип потока: Альбом
Комментарий: Encoded by

Тип потока: Видео
Длительность: 00:23:15
Кодек: AVC
Кодек/описание: Advanced Video Codec
Кодек/профиль: Main@L3.0
Кодек/ID: avc1
Кодек/CABAC: No
Кодек/ReFrames: 2 frames
Размеры изображения: 640 x 360 (16:9)
Частота кадров: 23.976 fps
Частота кадров/тип: Variable
Размер потока: 250 MiB (89%)
Битрейт: 1 503 Kbps
Битрейт/макс: 2 000 Kbps
Битрейт/тип: VBR
Стандарт: NTSC
Цветовое пространство: YUV
Тип развёртки: Progressive
Колориметрия: 4:2:0
Глубина: 8 bits

Тип потока: Звук #1
Длительность: 00:23:15.820
Кодек: AAC
Кодек/описание: Advanced Audio Codec
Кодек/профиль: LC
Кодек/ID: 40
Частота дискретизации: 44.1 KHz
Каналов: 2 channels
Битрейт: 96.0 Kbps
Битрейт/тип: Variable
Размер потока: 16.0 MiB (6%)
Метод сжатия: Lossy

Имя файла: [FatalGirls.com] Hannah_SD.mp4
Формат файла: .mp4 (MPEG-4)
Размер файла: 552.78 MB
Длительность: 24mn 19s
Навигация по главам: Нет
Битрейт (все потоки): 3 178 Kbps
Создан при помощи: Lavf55.33.100
Обложка: Отсутствует

Название: [FatalGirls.com] Hannah_SD

Тип потока: Альбом
Комментарий: by_GE

Тип потока: Видео
Длительность: 00:24:18
Кодек: AVC
Кодек/описание: Advanced Video Codec
Кодек/профиль: High@L3.1
Кодек/ID: avc1
Кодек/CABAC: Yes
Кодек/ReFrames: 4 frames
Размеры изображения: 1280 x 720 (16:9)
Частота кадров: 23.976 fps
Частота кадров/тип: Constant
Размер потока: 529 MiB (96%)
Битрейт: 3 000 Kbps
Библиотека кодирования: x264 core 142 r2 d6b4e63
Цветовое пространство: YUV
Тип развёртки: Progressive
Колориметрия: 4:2:0
Глубина: 8 bits
Настройки кодирования: cabac=1 / ref=3 / deblock=1:0:0 / analyse=0x3:0x113 / me=hex / subme=7 / psy=1 / psy_rd=1.00:0.00 / mixed_ref=1 / me_range=16 / chroma_me=1 / trellis=1 / 8x8dct=1 / cqm=0 / deadzone=21,11 / fast_pskip=1 / chroma_qp_offset=-2 / threads=24 / lookahead_threads=4 / sliced_threads=0 / nr=0 / decimate=1 / interlaced=0 / bluray_compat=0 / constrained_intra=0 / bframes=3 / b_pyramid=2 / b_adapt=1 / b_bias=0 / direct=1 / weightb=1 / open_gop=0 / weightp=2 / keyint=250 / keyint_min=23 / scenecut=40 / intra_refresh=0 / rc_lookahead=40 / rc=abr / mbtree=1 / bitrate=3000 / ratetol=1.0 / qcomp=0.60 / qpmin=0 / qpmax=69 / qpstep=4 / ip_ratio=1.40 / aq=1:1.00

Тип потока: Звук #1
Язык: Russian
Длительность: 00:24:19.117
Кодек: AAC
Кодек/описание: Advanced Audio Codec
Кодек/профиль: LC
Кодек/ID: 40
Частота дискретизации: 44.1 KHz
Каналов: 2 channels
Битрейт: 128 Kbps
Битрейт/тип: Constant
Размер потока: 22.3 MiB (4%)
Метод сжатия: Lossy

Имя файла: [FERRONETWORK.com NylonFeetVideos.com] Amy A, Gerhard (g851)_SD.wmv
Формат файла: .wmv (Windows Media)
Размер файла: 316.24 MB
Длительность: 13mn 25s
Навигация по главам: Нет
Битрейт (все потоки): 3 294 Kbps
Битрейт (все потоки, максимальный): 3 337 Kbps
Тип битрейта (все потоки): Constant
Файл создан: UTC 2013-07-04 23:02:13.638
Обложка: Отсутствует

Название: [FERRONETWORK.com NylonFeetVideos.com] Amy A, Gerhard (g851)_SD

Тип потока: Видео
Длительность: 00:13:25
Кодек: VC-1
Кодек/описание: Windows Media Video 9
Кодек/профиль: MP@HL
Кодек/ID: WMV3
Размеры изображения: 1280 x 720 (16:9)
Частота кадров: 24.000 fps
Размер потока: 288 MiB (91%)
Битрейт: 3 000 Kbps
Битрейт/тип: CBR
Метод сжатия: Lossy
Цветовое пространство: YUV
Тип развёртки: Progressive
Колориметрия: 4:2:0
Глубина: 8 bits

Тип потока: Звук #1
Длительность: 00:13:25.249
Кодек: WMA
Кодек/ID: 161
Частота дискретизации: 44.1 KHz
Каналов: 2 channels
Битрейт: 320 Kbps
Битрейт/тип: Constant
Размер потока: 30.7 MiB (10%)
Глубина: 16 bits

Имя файла: [FERRONETWORK.com NylonFeetVideos.com] Amy A, Gerhard (g852)_SD.wmv
Формат файла: .wmv (Windows Media)
Размер файла: 255.03 MB
Длительность: 10mn 51s
Навигация по главам: Нет
Битрейт (все потоки): 3 286 Kbps
Битрейт (все потоки, максимальный): 3 337 Kbps
Тип битрейта (все потоки): Constant
Файл создан: UTC 2013-07-06 00:21:19.600
Обложка: Отсутствует

Название: [FERRONETWORK.com NylonFeetVideos.com] Amy A, Gerhard (g852)_SD

Тип потока: Видео
Длительность: 00:10:51
Кодек: VC-1
Кодек/описание: Windows Media Video 9
Кодек/профиль: MP@HL
Кодек/ID: WMV3
Размеры изображения: 1280 x 720 (16:9)
Частота кадров: 24.000 fps
Размер потока: 233 MiB (91%)
Битрейт: 3 000 Kbps
Битрейт/тип: CBR
Метод сжатия: Lossy
Цветовое пространство: YUV
Тип развёртки: Progressive
Колориметрия: 4:2:0
Глубина: 8 bits

Тип потока: Звук #1
Длительность: 00:10:51.040
Кодек: WMA
Кодек/ID: 161
Частота дискретизации: 44.1 KHz
Каналов: 2 channels
Битрейт: 320 Kbps
Битрейт/тип: Constant
Размер потока: 24.8 MiB (10%)
Глубина: 16 bits

Имя файла: [FERRONETWORK.com PantyhoseJobs.com] Amy A, Gerhard (g708)_SD.wmv
Формат файла: .wmv (Windows Media)
Размер файла: 256.23 MB
Длительность: 10mn 54s
Навигация по главам: Нет
Битрейт (все потоки): 3 284 Kbps
Битрейт (все потоки, максимальный): 3 337 Kbps
Тип битрейта (все потоки): Constant
Файл создан: UTC 2013-07-04 02:24:44.711
Обложка: Отсутствует

Название: [FERRONETWORK.com PantyhoseJobs.com] Amy A, Gerhard (g708)_SD

Тип потока: Видео
Длительность: 00:10:54
Кодек: VC-1
Кодек/описание: Windows Media Video 9
Кодек/профиль: MP@HL
Кодек/ID: WMV3
Размеры изображения: 1280 x 720 (16:9)
Частота кадров: 24.000 fps
Размер потока: 234 MiB (91%)
Битрейт: 3 000 Kbps
Битрейт/тип: CBR
Метод сжатия: Lossy
Цветовое пространство: YUV
Тип развёртки: Progressive
Колориметрия: 4:2:0
Глубина: 8 bits

Тип потока: Звук #1
Длительность: 00:10:54.540
Кодек: WMA
Кодек/ID: 161
Частота дискретизации: 44.1 KHz
Каналов: 2 channels
Битрейт: 320 Kbps
Битрейт/тип: Constant
Размер потока: 25.0 MiB (10%)
Глубина: 16 bits

Имя файла: [FERRONETWORK.com PantyhoseScreen.com] Amy A, Gerhard (g673)_SD.wmv
Формат файла: .wmv (Windows Media)
Размер файла: 326.47 MB
Длительность: 13mn 51s
Навигация по главам: Нет
Битрейт (все потоки): 3 294 Kbps
Битрейт (все потоки, максимальный): 3 337 Kbps
Тип битрейта (все потоки): Constant
Файл создан: UTC 2013-07-06 02:25:44.702
Обложка: Отсутствует

Название: [FERRONETWORK.com PantyhoseScreen.com] Amy A, Gerhard (g673)_SD

Тип потока: Видео
Длительность: 00:13:51
Кодек: VC-1
Кодек/описание: Windows Media Video 9
Кодек/профиль: MP@HL
Кодек/ID: WMV3
Размеры изображения: 1280 x 720 (16:9)
Частота кадров: 24.000 fps
Размер потока: 297 MiB (91%)
Битрейт: 3 000 Kbps
Битрейт/тип: CBR
Метод сжатия: Lossy
Цветовое пространство: YUV
Тип развёртки: Progressive
Колориметрия: 4:2:0
Глубина: 8 bits

Тип потока: Звук #1
Длительность: 00:13:51.458
Кодек: WMA
Кодек/ID: 161
Частота дискретизации: 44.1 KHz
Каналов: 2 channels
Битрейт: 320 Kbps
Битрейт/тип: Constant
Размер потока: 31.7 MiB (10%)
Глубина: 16 bits

Имя файла: [FirstAnalQuest.com] Milana Fox_SD.wmv
Формат файла: .wmv (Windows Media)
Размер файла: 562.09 MB
Длительность: 30mn 33s
Навигация по главам: Нет
Битрейт (все потоки): 2 572 Kbps
Битрейт (все потоки, максимальный): 2 583 Kbps
Тип битрейта (все потоки): Constant
Файл создан: UTC 2013-04-14 18:20:42.643
Обложка: Отсутствует

Название: [FirstAnalQuest.com] Milana Fox_SD

Тип потока: Видео
Длительность: 00:30:33
Кодек: VC-1
Кодек/описание: Windows Media Video 9
Кодек/профиль: MP@HL
Кодек/ID: WMV3
Размеры изображения: 800 x 452 (16:9)
Частота кадров: 29.970 fps
Размер потока: 532 MiB (95%)
Битрейт: 2 432 Kbps
Битрейт/тип: CBR
Метод сжатия: Lossy
Цветовое пространство: YUV
Тип развёртки: Progressive
Колориметрия: 4:2:0
Глубина: 8 bits

Тип потока: Звук #1
Язык: Russian
Длительность: 00:30:33.496
Кодек: WMA
Кодек/ID: 161
Частота дискретизации: 44.1 KHz
Каналов: 2 channels
Битрейт: 128 Kbps
Битрейт/тип: Constant
Размер потока: 28.0 MiB (5%)
Глубина: 16 bits

Имя файла: [HandsOnHardcore.com DDFProd.com] Milana Fox_SD.mp4
Формат файла: .mp4 (MPEG-4)
Размер файла: 425.98 MB
Длительность: 22mn 10s
Навигация по главам: Нет
Битрейт (все потоки): 2 686 Kbps
Тип битрейта (все потоки): Variable
Файл создан: UTC 2013-06-05 12:14:58
Обложка: Отсутствует

Название: [HandsOnHardcore.com DDFProd.com] Milana Fox_SD

Тип потока: Видео
Длительность: 00:22:10
Кодек: AVC
Кодек/описание: Advanced Video Codec
Кодек/профиль: Main@L3.1
Кодек/ID: avc1
Кодек/CABAC: Yes
Кодек/ReFrames: 3 frames
Размеры изображения: 960 x 540 (16:9)
Частота кадров: 29.970 fps
Частота кадров/тип: Constant
Размер потока: 395 MiB (93%)
Битрейт: 2 500 Kbps
Битрейт/тип: CBR
Стандарт: NTSC
Цветовое пространство: YUV
Тип развёртки: Progressive
Колориметрия: 4:2:0
Глубина: 8 bits

Тип потока: Звук #1
Язык: English
Длительность: 00:22:10.230
Кодек: AAC
Кодек/описание: Advanced Audio Codec
Кодек/профиль: LC
Кодек/ID: 40
Частота дискретизации: 48.0 KHz
Каналов: 2 channels
Битрейт: 192 Kbps
Битрейт/тип: Variable
Размер потока: 30.0 MiB (7%)
Метод сжатия: Lossy

Имя файла: [HardcoreGangBang.com Kink.com] Milana Fox_SD.wmv
Формат файла: .wmv (Windows Media)
Размер файла: 676.15 MB
Длительность: 56mn 25s
Навигация по главам: Нет
Битрейт (все потоки): 1 675 Kbps
Битрейт (все потоки, максимальный): 7 158 Kbps
Тип битрейта (все потоки): Variable
Файл создан: UTC 2013-07-24 00:23:59.323
Обложка: Отсутствует

Название: [HardcoreGangBang.com Kink.com] Milana Fox_SD

Тип потока: Видео
Длительность: 00:56:25
Кодек: VC-1
Кодек/описание: Windows Media Video 9
Кодек/профиль: MP@HL
Кодек/ID: WMV3
Размеры изображения: 1280 x 720 (16:9)
Частота кадров: 29.970 fps
Размер потока: 605 MiB (90%)
Битрейт: 1 500 Kbps
Битрейт/тип: VBR
Метод сжатия: Lossy
Цветовое пространство: YUV
Тип развёртки: Progressive
Колориметрия: 4:2:0
Глубина: 8 bits

Тип потока: Звук #1
Длительность: 00:56:25.307
Кодек: WMA
Кодек/ID: 161
Частота дискретизации: 44.1 KHz
Каналов: 2 channels
Битрейт: 128 Kbps
Битрейт/тип: Constant
Размер потока: 51.7 MiB (8%)
Глубина: 16 bits

Имя файла: [Nubiles.net] Milana Fox (Evening Wear)_SD.wmv
Формат файла: .wmv (Windows Media)
Размер файла: 319.99 MB
Длительность: 12mn 20s
Навигация по главам: Нет
Битрейт (все потоки): 3 623 Kbps
Битрейт (все потоки, максимальный): 3 659 Kbps
Тип битрейта (все потоки): Constant
Файл создан: UTC 2013-06-24 16:35:28.674
Создан при помощи: TMPGEnc Video Mastering Works 5 Version. 5.1.1.52
Обложка: Отсутствует

Название: [Nubiles.net] Milana Fox (Evening Wear)_SD

Тип потока: Видео
Длительность: 00:12:20
Кодек: VC-1
Кодек/описание: Windows Media Video 9
Кодек/профиль: MP@HL
Кодек/ID: WMV3
Размеры изображения: 1280 x 720 (16:9)
Частота кадров: 29.970 fps
Размер потока: 309 MiB (97%)
Битрейт: 3 500 Kbps
Битрейт/тип: CBR
Метод сжатия: Lossy
Цветовое пространство: YUV
Тип развёртки: Progressive
Колориметрия: 4:2:0
Глубина: 8 bits

Тип потока: Звук #1
Язык: English (US)
Длительность: 00:12:20.863
Кодек: WMA
Кодек/ID: 161
Частота дискретизации: 48.0 KHz
Каналов: 2 channels
Битрейт: 128 Kbps
Битрейт/тип: Constant
Размер потока: 11.3 MiB (4%)
Глубина: 16 bits

Расположение: D:\video\Milana Fox\[Nubiles.net] Milana Fox (Just So Cute)_SD.wmv
Имя файла: [Nubiles.net] Milana Fox (Just So Cute)_SD.wmv
Формат файла: .wmv (Windows Media)
Размер файла: 195.62 MB
Длительность: 7mn 30s
Навигация по главам: Нет
Битрейт (все потоки): 3 640 Kbps
Битрейт (все потоки, максимальный): 3 628 Kbps
Тип битрейта (все потоки): Constant
Файл создан: UTC 1970-01-01 00:00:00.000
Создан при помощи: TMPGEnc Video Mastering Works 5 Version. 5.1.1.52
Обложка: Отсутствует

Название: Downloaded from RARBG.COM

Тип потока: Видео
Длительность: 00:07:30
Кодек: VC-1
Кодек/описание: Windows Media Video 9
Кодек/профиль: Main
Кодек/ID: WMV3
Размеры изображения: 1280 x 720 (16:9)
Частота кадров: 29.970 fps
Размер потока: 181 MiB (92%)
Битрейт: 3 359 Kbps
Метод сжатия: Lossy
Цветовое пространство: YUV
Тип развёртки: Progressive
Колориметрия: 4:2:0
Глубина: 8 bits

Тип потока: Звук #1
Длительность: 00:07:30.793
Кодек: WMA
Кодек/ID: 161
Частота дискретизации: 48.0 KHz
Каналов: 2 channels
Битрейт: 128 Kbps
Размер потока: 6.88 MiB (4%)
Глубина: 16 bits

Имя файла: [Nubiles.net] Milana Fox (Pretty Pink)_SD.wmv
Формат файла: .wmv (Windows Media)
Размер файла: 343.74 MB
Длительность: 13mn 15s
Навигация по главам: Нет
Битрейт (все потоки): 3 623 Kbps
Битрейт (все потоки, максимальный): 3 659 Kbps
Тип битрейта (все потоки): Constant
Файл создан: UTC 2013-06-24 17:15:42.480
Создан при помощи: TMPGEnc Video Mastering Works 5 Version. 5.1.1.52
Обложка: Отсутствует

Название: [Nubiles.net] Milana Fox (Pretty Pink)_SD

Тип потока: Видео
Длительность: 00:13:15
Кодек: VC-1
Кодек/описание: Windows Media Video 9
Кодек/профиль: MP@HL
Кодек/ID: WMV3
Размеры изображения: 1280 x 720 (16:9)
Частота кадров: 29.970 fps
Размер потока: 332 MiB (97%)
Битрейт: 3 500 Kbps
Битрейт/тип: CBR
Метод сжатия: Lossy
Цветовое пространство: YUV
Тип развёртки: Progressive
Колориметрия: 4:2:0
Глубина: 8 bits

Тип потока: Звук #1
Язык: English (US)
Длительность: 00:13:15.818
Кодек: WMA
Кодек/ID: 161
Частота дискретизации: 48.0 KHz
Каналов: 2 channels
Битрейт: 128 Kbps
Битрейт/тип: Constant
Размер потока: 12.1 MiB (4%)
Глубина: 16 bits

Имя файла: [Nubiles.net] Milana Fox (Taking A Break)_SD.wmv
Формат файла: .wmv (Windows Media)
Размер файла: 407.02 MB
Длительность: 15mn 41s
Навигация по главам: Нет
Битрейт (все потоки): 3 628 Kbps
Битрейт (все потоки, максимальный): 3 659 Kbps
Тип битрейта (все потоки): Constant
Файл создан: UTC 2013-06-24 17:44:25.403
Создан при помощи: TMPGEnc Video Mastering Works 5 Version. 5.1.1.52
Обложка: Отсутствует

Название: [Nubiles.net] Milana Fox (Taking A Break)_SD

Тип потока: Видео
Длительность: 00:15:41
Кодек: VC-1
Кодек/описание: Windows Media Video 9
Кодек/профиль: MP@HL
Кодек/ID: WMV3
Размеры изображения: 1280 x 720 (16:9)
Частота кадров: 29.970 fps
Размер потока: 393 MiB (96%)
Битрейт: 3 500 Kbps
Битрейт/тип: CBR
Метод сжатия: Lossy
Цветовое пространство: YUV
Тип развёртки: Progressive
Колориметрия: 4:2:0
Глубина: 8 bits

Тип потока: Звук #1
Язык: English (US)
Длительность: 00:15:41.141
Кодек: WMA
Кодек/ID: 161
Частота дискретизации: 48.0 KHz
Каналов: 2 channels
Битрейт: 128 Kbps
Битрейт/тип: Constant
Размер потока: 14.4 MiB (4%)
Глубина: 16 bits

Имя файла: [Nubiles.net] Milana Fox_SD.mp4
Формат файла: .mp4 (MPEG-4)
Размер файла: 265.17 MB
Длительность: 23mn 22s
Навигация по главам: Нет
Битрейт (все потоки): 1 586 Kbps
Тип битрейта (все потоки): Variable
Файл создан: UTC 1970-01-01 00:00:00
Создан при помощи: Lavf52.91.0
Обложка: Отсутствует

Название: [Nubiles.net] Milana Fox_SD

Тип потока: Видео
Длительность: 00:23:22
Кодек: AVC
Кодек/описание: Advanced Video Codec
Кодек/профиль: Main@L3.1
Кодек/ID: avc1
Кодек/CABAC: Yes
Кодек/ReFrames: 4 frames
Размеры изображения: 854 x 480 (16:9)
Частота кадров: 59.940 fps
Частота кадров/тип: Constant
Размер потока: 248 MiB (94%)
Битрейт: 1 500 Kbps
Библиотека кодирования: x264 core 112
Цветовое пространство: YUV
Тип развёртки: Progressive
Колориметрия: 4:2:0
Глубина: 8 bits
Настройки кодирования: cabac=1 / ref=4 / deblock=1:0:0 / analyse=0x1:0x111 / me=umh / subme=8 / psy=1 / psy_rd=1.00:0.00 / mixed_ref=1 / me_range=16 / chroma_me=1 / trellis=1 / 8x8dct=0 / cqm=0 / deadzone=21,11 / fast_pskip=1 / chroma_qp_offset=-2 / threads=1 / sliced_threads=0 / nr=0 / decimate=1 / interlaced=0 / constrained_intra=0 / bframes=3 / b_pyramid=0 / b_adapt=2 / b_bias=0 / direct=3 / weightb=1 / open_gop=0 / weightp=0 / keyint=250 / keyint_min=25 / scenecut=40 / intra_refresh=0 / rc_lookahead=40 / rc=abr / mbtree=1 / bitrate=1500 / ratetol=1.0 / qcomp=0.60 / qpmin=10 / qpmax=51 / qpstep=4 / ip_ratio=1.41 / aq=1:1.00

Тип потока: Звук #1
Язык: English
Длительность: 00:23:22.091
Кодек: AAC
Кодек/описание: Advanced Audio Codec
Кодек/профиль: LC
Кодек/ID: 40
Частота дискретизации: 44.1 KHz
Каналов: 2 channels
Битрейт: 96.0 Kbps
Битрейт/тип: Variable
Размер потока: 16.0 MiB (6%)
Метод сжатия: Lossy

Имя файла: [pantyhosejobs.com ferronetwork.com] Amy A, Gerhard (g709)_SD.wmv
Формат файла: .wmv (Windows Media)
Размер файла: 352.73 MB
Длительность: 14mn 57s
Навигация по главам: Нет
Битрейт (все потоки): 3 298 Kbps
Битрейт (все потоки, максимальный): 3 337 Kbps
Тип битрейта (все потоки): Constant
Файл создан: UTC 2013-07-04 04:35:41.906
Обложка: Отсутствует

Название: [pantyhosejobs.com ferronetwork.com] Amy A, Gerhard (g709)_SD

Тип потока: Видео
Длительность: 00:14:57
Кодек: VC-1
Кодек/описание: Windows Media Video 9
Кодек/профиль: MP@HL
Кодек/ID: WMV3
Размеры изображения: 1280 x 720 (16:9)
Частота кадров: 24.000 fps
Размер потока: 321 MiB (91%)
Битрейт: 3 000 Kbps
Битрейт/тип: CBR
Метод сжатия: Lossy
Цветовое пространство: YUV
Тип развёртки: Progressive
Колориметрия: 4:2:0
Глубина: 8 bits

Тип потока: Звук #1
Длительность: 00:14:57.249
Кодек: WMA
Кодек/ID: 161
Частота дискретизации: 44.1 KHz
Каналов: 2 channels
Битрейт: 320 Kbps
Битрейт/тип: Constant
Размер потока: 34.2 MiB (10%)
Глубина: 16 bits

Имя файла: [pantyhosetales.com ferronetwork.com] Amy A, Gerhard (g734)_SD.wmv
Формат файла: .wmv (Windows Media)
Размер файла: 312.42 MB
Длительность: 13mn 15s
Навигация по главам: Нет
Битрейт (все потоки): 3 293 Kbps
Битрейт (все потоки, максимальный): 3 337 Kbps
Тип битрейта (все потоки): Constant
Файл создан: UTC 2013-07-07 01:21:29.964
Обложка: Отсутствует

Название: [pantyhosetales.com ferronetwork.com] Amy A, Gerhard (g734)_SD

Тип потока: Видео
Длительность: 00:13:15
Кодек: VC-1
Кодек/описание: Windows Media Video 9
Кодек/профиль: MP@HL
Кодек/ID: WMV3
Размеры изображения: 1280 x 720 (16:9)
Частота кадров: 24.000 fps
Размер потока: 285 MiB (91%)
Битрейт: 3 000 Kbps
Битрейт/тип: CBR
Метод сжатия: Lossy
Цветовое пространство: YUV
Тип развёртки: Progressive
Колориметрия: 4:2:0
Глубина: 8 bits

Тип потока: Звук #1
Длительность: 00:13:15.791
Кодек: WMA
Кодек/ID: 161
Частота дискретизации: 44.1 KHz
Каналов: 2 channels
Битрейт: 320 Kbps
Битрейт/тип: Constant
Размер потока: 30.4 MiB (10%)
Глубина: 16 bits

Имя файла: [Private.com] Milana Fox (Has A Casting Couch Encounter)_SD.mp4
Формат файла: .mp4 (MPEG-4)
Размер файла: 528.51 MB
Длительность: 38mn 53s
Навигация по главам: Нет
Битрейт (все потоки): 1 900 Kbps
Тип битрейта (все потоки): Variable
Файл создан: UTC 2013-09-01 06:38:10
Создан при помощи: My MP4Box GUI 0.5.5.4 <http://my-mp4box-gui.zymichost.com>
Обложка: Отсутствует

Название: Imported with GPAC 0.4.6-DEV (internal rev. 5)

Тип потока: Видео
Длительность: 00:38:53
Кодек: AVC
Кодек/описание: Advanced Video Codec
Кодек/профиль: High@L3.1
Кодек/ID: avc1
Кодек/CABAC: Yes
Кодек/ReFrames: 2 frames
Размеры изображения: 720 x 404 (16:9)
Частота кадров: 25.000 fps
Частота кадров/тип: Constant
Размер потока: 472 MiB (89%)
Битрейт: 1 698 Kbps
Битрейт/макс: 2 250 Kbps
Битрейт/тип: VBR
Цветовое пространство: YUV
Тип развёртки: Progressive
Колориметрия: 4:2:0
Глубина: 8 bits

Тип потока: Звук #1
Язык: English
Длительность: 00:38:53.887
Кодек: AAC
Кодек/описание: Advanced Audio Codec
Кодек/профиль: LC
Кодек/ID: 40
Частота дискретизации: 48.0 KHz
Каналов: 2 channels
Битрейт: 113 Kbps
Битрейт/тип: Variable
Размер потока: 31.5 MiB (6%)
Метод сжатия: Lossy

Имя файла: ButtPlays.com 21Sextury.com_Milana Fox _Toys'r'fun_ v600030_SD.mp4
Формат файла: .mp4 (MPEG-4)
Размер файла: 487.57 MB
Длительность: 39mn 19s
Навигация по главам: Нет
Битрейт (все потоки): 1 733 Kbps
Тип битрейта (все потоки): Variable
Файл создан: UTC 2013-04-10 10:32:29
Обложка: Отсутствует

Название: ButtPlays.com 21Sextury.com_Milana Fox _Toys'r'fun_ v600030_SD

Тип потока: Видео
Длительность: 00:39:19
Кодек: AVC
Кодек/описание: Advanced Video Codec
Кодек/профиль: High@L3.2
Кодек/ID: avc1
Кодек/CABAC: Yes
Кодек/ReFrames: 4 frames
Размеры изображения: 640 x 360 (16:9)
Частота кадров: 50.000 fps
Частота кадров/тип: Constant
Размер потока: 450 MiB (92%)
Битрейт: 1 600 Kbps
Цветовое пространство: YUV
Тип развёртки: Progressive
Колориметрия: 4:2:0
Глубина: 8 bits

Тип потока: Звук #1
Язык: English
Длительность: 00:39:19.915
Кодек: AAC
Кодек/описание: Advanced Audio Codec
Кодек/профиль: LC
Кодек/ID: 40
Частота дискретизации: 48.0 KHz
Каналов: 2 channels
Битрейт: 125 Kbps
Битрейт/тип: Variable
Размер потока: 35.3 MiB (7%)
Метод сжатия: Lossy

Имя файла: EverythingButt.com_Kink.com_Roxana Trip and Milana Fox_SВ.mp4
Формат файла: .mp4 (MPEG-4)
Размер файла: 311.99 MB
Длительность: 28mn 28s
Навигация по главам: Нет
Битрейт (все потоки): 1 532 Kbps
Тип битрейта (все потоки): Variable
Файл создан: UTC 2014-04-01 02:09:25
Обложка: Отсутствует

Название: EverythingButt.com_Kink.com_Roxana Trip and Milana Fox_SВ

Тип потока: Видео
Длительность: 00:28:28
Кодек: AVC
Кодек/описание: Advanced Video Codec
Кодек/профиль: Baseline@L3.2
Кодек/ID: avc1
Кодек/CABAC: No
Кодек/ReFrames: 2 frames
Размеры изображения: 960 x 540 (16:9)
Частота кадров: 29.970 fps
Частота кадров/тип: Constant
Размер потока: 285 MiB (91%)
Битрейт: 1 400 Kbps
Битрейт/макс: 3 522 Kbps
Битрейт/тип: CBR
Цветовое пространство: YUV
Тип развёртки: Progressive
Колориметрия: 4:2:0
Глубина: 8 bits

Тип потока: Звук #1
Длительность: 00:28:28.037
Кодек: AAC
Кодек/описание: Advanced Audio Codec
Кодек/профиль: LC
Кодек/ID: 40
Частота дискретизации: 44.1 KHz
Каналов: 2 channels
Битрейт: 128 Kbps
Битрейт/тип: Variable
Размер потока: 25.6 MiB (8%)
Метод сжатия: Lossy

Имя файла: FirstAnalQuest.com_Milana Fox_SD.wmv
Формат файла: .wmv (Windows Media)
Размер файла: 480.82 MB
Длительность: 25mn 7s
Навигация по главам: Нет
Битрейт (все потоки): 2 676 Kbps
Битрейт (все потоки, максимальный): 2 687 Kbps
Тип битрейта (все потоки): Constant
Файл создан: UTC 2013-06-12 07:08:33.300
Обложка: Отсутствует

Название: FirstAnalQuest.com_Milana Fox_SD

Тип потока: Видео
Длительность: 00:25:07
Кодек: VC-1
Кодек/описание: Windows Media Video 9
Кодек/профиль: MP@HL
Кодек/ID: WMV3
Размеры изображения: 800 x 452 (16:9)
Частота кадров: 29.970 fps
Размер потока: 456 MiB (95%)
Битрейт: 2 535 Kbps
Битрейт/тип: CBR
Метод сжатия: Lossy
Цветовое пространство: YUV
Тип развёртки: Progressive
Колориметрия: 4:2:0
Глубина: 8 bits

Тип потока: Звук #1
Язык: Russian
Длительность: 00:25:07.305
Кодек: WMA
Кодек/ID: 161
Частота дискретизации: 44.1 KHz
Каналов: 2 channels
Битрейт: 128 Kbps
Битрейт/тип: Constant
Размер потока: 23.0 MiB (5%)
Глубина: 16 bits

Имя файла: Private.com_Milana Fox - Сцена из Private Specials 77_SD.mp4
Формат файла: .mp4 (MPEG-4)
Размер файла: 459.42 MB
Длительность: 33mn 31s
Навигация по главам: Нет
Битрейт (все потоки): 1 916 Kbps
Тип битрейта (все потоки): Variable
Файл создан: UTC 2013-06-27 06:49:18
Создан при помощи: My MP4Box GUI 0.5.6.0 <http://my-mp4box-gui.zymichost.com>
Обложка: Отсутствует

Название: Imported with GPAC 0.4.6-DEV (internal rev. 5)

Тип потока: Видео
Длительность: 00:33:31
Кодек: AVC
Кодек/описание: Advanced Video Codec
Кодек/профиль: High@L3.1
Кодек/ID: avc1
Кодек/CABAC: Yes
Кодек/ReFrames: 2 frames
Размеры изображения: 720 x 404 (16:9)
Частота кадров: 25.000 fps
Частота кадров/тип: Constant
Размер потока: 407 MiB (89%)
Битрейт: 1 698 Kbps
Битрейт/макс: 2 250 Kbps
Битрейт/тип: VBR
Цветовое пространство: YUV
Тип развёртки: Progressive
Колориметрия: 4:2:0
Глубина: 8 bits

Тип потока: Звук #1
Язык: English
Длительность: 00:33:31.413
Кодек: AAC
Кодек/описание: Advanced Audio Codec
Кодек/профиль: LC
Кодек/ID: 40
Частота дискретизации: 48.0 KHz
Каналов: 2 channels
Битрейт: 132 Kbps
Битрейт/тип: Variable
Размер потока: 31.1 MiB (7%)
Метод сжатия: Lossy

Имя файла: WakeUpNFuck.com_PierreWoodman.com_Milana Fox_Wunf 110_SD.mp4
Формат файла: .mp4 (MPEG-4)
Размер файла: 781.25 MB
Длительность: 1h 12mn
Навигация по главам: Нет
Битрейт (все потоки): 1 516 Kbps
Тип битрейта (все потоки): Variable
Создан при помощи: Lavf54.63.104
Обложка: Отсутствует

Название: MILANA FOX - WUNF 98

Тип потока: Альбом
Альбом/исполнитель: Pierre Woodman

Тип потока: Видео
Длительность: 01:12:02
Кодек: AVC
Кодек/описание: Advanced Video Codec
Кодек/профиль: High@L3.1
Кодек/ID: avc1
Кодек/CABAC: Yes
Кодек/ReFrames: 4 frames
Размеры изображения: 960 x 540 (16:9)
Частота кадров: 25.000 fps
Частота кадров/тип: Constant
Размер потока: 720 MiB (92%)
Битрейт: 1 400 Kbps
Битрейт/макс: 2 000 Kbps
Битрейт/тип: VBR
Библиотека кодирования: x264 core 132
Цветовое пространство: YUV
Тип развёртки: Progressive
Колориметрия: 4:2:0
Глубина: 8 bits
Настройки кодирования: cabac=1 / ref=5 / deblock=1:0:0 / analyse=0x3:0x113 / me=umh / subme=8 / psy=1 / psy_rd=1.00:0.00 / mixed_ref=1 / me_range=16 / chroma_me=1 / trellis=1 / 8x8dct=1 / cqm=0 / deadzone=21,11 / fast_pskip=1 / chroma_qp_offset=0 / threads=8 / lookahead_threads=1 / sliced_threads=0 / nr=0 / decimate=1 / interlaced=0 / bluray_compat=1 / constrained_intra=0 / bframes=3 / b_pyramid=1 / b_adapt=2 / b_bias=0 / direct=3 / weightb=1 / open_gop=0 / weightp=1 / keyint=50 / keyint_min=1 / scenecut=40 / intra_refresh=0 / rc_lookahead=50 / rc=2pass / mbtree=1 / bitrate=1400 / ratetol=1.0 / qcomp=0.60 / qpmin=0 / qpmax=69 / qpstep=4 / cplxblur=20.0 / qblur=0.5 / vbv_maxrate=2000 / vbv_bufsize=4000 / nal_hrd=vbr / ip_ratio=1.40 / aq=1:1.00

Тип потока: Звук #1
Язык: English
Длительность: 01:12:02.518
Кодек: AAC
Кодек/описание: Advanced Audio Codec
Кодек/профиль: LC
Кодек/ID: 40
Частота дискретизации: 48.0 KHz
Каналов: 2 channels
Битрейт: 112 Kbps
Битрейт/тип: Constant
Размер потока: 57.7 MiB (7%)
Метод сжатия: Lossy
https://yadi.sk/d/-4G1NZXsf828B
Самый популярный релиз 2012 г.:
Бразильская модель и актриса Suelyn Medeiros в домашнем видео [url]...1566184[/url]
Эксклюзив! [Audio]. Реальные аудиозаписи секса (стоны, крики, мольбы, мат, разговоры) [url]...15590521#15590521[/url]
Эксклюзив!. Радиопередача "Секс в большом городе" с Семеном Чайкой [2007-2012 гг., Audio, Sex Talk, MP3]. Полный архив (575 выпусков). Все что вы хотели узнать о сексе, но боялись спросить.
[url]...1896658[/url]
Трекер:  [ 15-Мар-2015 21:00 ]

Размер .torrent файла 191 KB


Размер: 2 GB
Хэш (hash) релиза: d3a15bc40c3529f818207d7c5b72ef4dcfad2e3d
Подписка на обновления:

Торренты, похожие на Milana Fox скачать торрент

Форум Название Автор Размер S L Добавлен
Сайтрипы с русскими актрисами 2011-2015 / Russian SiteRip's 2011-2015 ·· Milana Fox (Russian Girl Milana Spreads Her Ass Wide for Cock and Takes It Deep / 21.11.14) [2014 г., Anal Sex, Gonzo, Blonde, Cumshot, Blowjob, Toys, Gaping, Facials, Lingerie] Sakura 347751500332 MB 0 0 1416598320

23:32

21-Ноя-14

Фистинг и дилдо / Fisting & Dildo ·· Roxana Trip and Milana Fox (HOT Young, sexy eastern European babes Gape for kink)[Jan 27, 2015, Anal, Dildo Gag, Anilingus, Anal Stretching, Gape, Anal Fisting, Big Tits, Hardcore, Fetish, 540p] Sakura 327143885312 MB 0 0 1422394368

01:32

28-Янв-15

Фистинг и дилдо / Fisting & Dildo ·· Roxana Trip and Milana Fox (HOT Young, sexy eastern European babes Gape for kink)[Jan 27, 2015, Anal, Dildo Gag, Anilingus, Anal Stretching, Gape, Anal Fisting, Big Tits, Hardcore, Fetish, 720p] Sakura 10905269161.02 GB 0 0 1422394363

01:32

28-Янв-15

Сайтрипы с русскими актрисами 2011-2015 / Russian SiteRip's 2011-2015 ·· Milana Fox (Milena C) [2014, Anal Sex, Hardcore, Teen, HDRip] Sakura 418723231399 MB 0 0 1421647273

10:01

19-Янв-15

Сайтрипы с русскими актрисами 2011-2015 / Russian SiteRip's 2011-2015 ·· [FirstAnalQuest]Milana Fox (Milena C) [Anal, 720p, HDRip] Sakura 12053883961.12 GB 0 0 1420952447

09:00

11-Янв-15

Сайтрипы 2013 / SiteRip's 2013 ·· Milana Fox (АКА: Amy A, Cali, Haily, Hannah, Hannah D, Kate, Lika) - Irresistible (2013-11-26) [2013 г., Small Boobs, Shaved Pussy, Short Girls, Blonde, Long hair, Hardcore, Socks, Fair Skin, Girl-Boy, 720р] Bot 751099392716 MB 0 0 1386699776

22:22

10-Дек-13

Сайтрипы 2013 / SiteRip's 2013 ·· Milana Fox (WUNF 110 / 22.11.2013)[2013 г., All Sex, Anal, Orаl, Hardcore, 720p] Bot 19883664291.85 GB 0 0 1385153788

00:56

23-Ноя-13

Сайтрипы 2013 / SiteRip's 2013 ·· Milana Fox (Wunf 110 / 22.11.2013) [All sex, Oral, Hardcore, Anal, Teen, 1080p, HDRip] Bot 56131778905.23 GB 0 0 1385145175

22:32

22-Ноя-13

Сайтрипы 2013 / SiteRip's 2013 ·· Milana Fox (Wunf 110 / 22.11.2013) [All sex, Oral, Hardcore, Anal, SD] Bot 819196327781 MB 0 0 1385143340

22:02

22-Ноя-13

Сайтрипы 2013 / SiteRip's 2013 ·· Milana Fox (Hardcore / 16.10.13) [2013 г., Blonde, Fair Skin, Hardcore, Long hair, Shaved Pussy, Short Girls, Small Boobs, Socks, SiteRip] Bot 290050018277 MB 0 0 1382023774

19:29

17-Окт-13

Сайтрипы 2013 / SiteRip's 2013 ·· [EuroTeenErotica.com / DDFNetwork.com]Milana Fox [1080p, SATRip/17.10.2013 г., Teen,Blondes,Natural Tits,Shawed Pussy,All Sex,Oral,Anal,Cum On Pussy] Bot 13463727371.25 GB 0 0 1382021136

18:45

17-Окт-13

Сайтрипы 2013 / SiteRip's 2013 ·· Milana Fox aka Hannah (Deep Drillings / 17.10.13) [2013 г., Anal, Ass gape, Face sitting, Handjob, Teen, Cum in Pussy, Cum on ass, Blonde, Long hair, Russian, Shaved, Natural tits, Small tits, SiteRip] Bot 728922143695 MB 0 0 1382020854

18:40

17-Окт-13

Сайтрипы 2013 / SiteRip's 2013 ·· Milana Fox (Hardcore / 16-10-2013) [2013 г., Legal Teen, BJ, Facial, Hardcore, All Sex, HDRip, 720p] Bot 642057770612 MB 0 0 1381936396

19:13

16-Окт-13

Сайтрипы 2013 / SiteRip's 2013 ·· Milana Fox (Taking A Break / 01-10-2013) [2013 г., Legal Teen, Masturbation, Toy Play, Solo, HDRip, 720p] Bot 426795177407 MB 0 0 1380660393

00:46

2-Окт-13

Сайтрипы 2013 / SiteRip's 2013 ·· [Nubiles.net]Milana Fox (Pretty Pink/ 29.09.2013)[2013 г., Teen, Blond, Solo, Little Tits, Masturbation, CloseUp, 720p] Bot 360442301344 MB 0 0 1380457993

16:33

29-Сен-13

Сайтрипы 2013 / SiteRip's 2013 ·· [Nubiles.net]Milana Fox (Evening Wear/ 25.09.2013)[2013 г., Teen, Blond, Solo, Little Tits, Masturbation, Toys, 720p] Bot 335529971320 MB 0 0 1380457141

16:19

29-Сен-13

Сайтрипы 2013 / SiteRip's 2013 ·· Milana Fox & Ariadna [720p, SATRip/25.09.2013 г., teen,natural tits,lesbians,oral,kissing,dildo] Bot 11937090661.11 GB 0 0 1380270720

12:32

27-Сен-13

Сайтрипы 2013 / SiteRip's 2013 ·· Milana Fox (Just So Cute / 27-09-2013) [2013 г., Legal Teen, Masturbation, Solo, HDRip, 720p] Bot 205117658196 MB 0 0 1380270681

12:31

27-Сен-13

Сайтрипы 2013 / SiteRip's 2013 ·· Milana Fox & Ariadna [1080p, SATRip/25.09.2013 г., teen,natural tits,lesbians,oral,kissing,dildo] Bot 13872809861.29 GB 0 0 1380254142

07:55

27-Сен-13

Еще никто не оставлял запись к записи скачать торрент Milana Fox . Будь первым!

!Обратная связь
//main.js show_panel