Статистика раздачи
Размер:  2 GB   |    Зарегистрирован:  1 год 11 месяцев   |    .torrent скачан:  59 раз   |   

Пиры будут получены при скачивании

 

Скачать порно Furueru Kuchibiru / Дрожащие губы через торрент бесплатно :: UnionPron.org

 
 
Автор Сообщение

Sakura

avatar Sakura


[url=...1965820] [/url][url=...1953719] [/url]
Furueru Kuchibiru / フルエルクチビル / Дрожащие губы

Год производства: 2014 г.
Жанр: Big tits, Oral sex, Straight, Students, X-Ray
Серии: ep. 1-2 of 2
Продолжительность: 2х~25 min + 7 min трейлеры
Цензура: Есть

Озвучка: Японская (Оригинальная)

Режиссер: Oota Hideta
Автор оригинала: Inu
Студия: Pashmina, Studio 1st

Описание RUS: В одной из японских школ поздно вечером по пустым коридорам раздаются нетипичные для учебного заведения звуки. В кабинке туалете, учитель Куросава «усердно трудится» над повышением успеваемости одной из своих учениц, старшеклассницы - Катакуры Кон. Молодой преподаватель целый год пытался усмирить буйный характер своей подопечной, но, сам не заметил, как методики его воспитательного процесса пересекли грань дозволенности. Впрочем, Катакура сама стала инициатором подобных взаимоотношений, ибо испытывала к Куросаве сильное сексуально влечение. Предаваясь любовным утехам в любом подходящем (и не очень) для этого месте, парочке становится все труднее сдерживать свою связь строго в рамках сексуальных утех. Удовольствие плотских утех начинают сменять куда более возвышенные чувства… ©hentaimag.ru

Описание ENG: In a Japanese school late at night through the empty corridors heard unusual sounds for an educational institution. In the bathroom stall, teacher Kurosawa "working hard" to improve the performance of one of his students, high school student - Katakura Con. Young teacher for a year trying to subdue violent nature of his ward, but he did not notice how his methodology of educational process crossed the face of what is permitted. However, Katakura itself has initiated this relationship, because Kurosawa felt for strong sexual attraction. Indulging in amorous pleasures in any suitable (and not) for this place, a couple becomes increasingly difficult to restrain their relationship strictly within the limits of sexual pleasures. Carnal pleasure begin to change much more sublime feelings

Информационные ссылки: AniDB - MAL - World Art - ХентайМаг

Качество видео: 2х DVD5
Формат видео: DVD Video
Видео кодек: MPEG2
Аудио кодек: AC3
Видео: 720х480, (16:9), 29,970 кадров/сек, ~ 4600 Кбит/сек, NTSC
Аудио: JAP, AC-3, 2 канала, 192 Кбит/сек, 48,0 КГц
Общее
Полное имя : H:\VIDEO_TS\VTS_01_1.VOB
Формат : MPEG-PS
Размер файла : 1024 Мбайт
Продолжительность : 5 м. 1 с.
Режим общего битрейта : Переменный
Общий поток : 28,5 Мбит/сек

Видео
Идентификатор : 224 (0xE0)
Формат : MPEG Video
Версия формата : Version 2
Профиль формата : Main@Main
Параметр BVOP формата : Да
Параметр матрицы формата : Выборочная
Параметр GOP формата : Variable
Format_Settings_PictureStructure : Frame
Продолжительность : 5 м. 1 с.
Вид битрейта : Переменный
Битрейт : 27,7 Мбит/сек
Максимальный битрейт : 9800 Кбит/сек
Ширина : 720 пикселей
Высота : 480 пикселей
Соотношение сторон : 16:9
Частота кадров : 29,970 кадров/сек
Стандарт вещания : NTSC
Цветовое пространство : YUV
Субдискретизация насыщенности : 4:2:0
Битовая глубина : 8 бит
Тип развёртки : Чересстрочная
Порядок развёртки : Верхнее поле первое
Метод сжатия : С потерями
Бит/(Пиксели*Кадры) : 2.679
Временной код первого кадра : 01:32:42:00
Оригинал временного кода : Group of pictures header
Размер потока : 997 Мбайт (97%)
Gop_OpenClosed_FirstFrame : Closed

Аудио
Идентификатор : 189 (0xBD)-128 (0x80)
Формат : AC-3
Формат/Информация : Audio Coding 3
Расширение режима : CM (complete main)
Параметр Endianness формата : Big
Режим смешивания : DVD-Video
Продолжительность : 5 м. 1 с.
Вид битрейта : Постоянный
Битрейт : 192 Кбит/сек
Каналы : 2 канала
Расположение каналов : Front: L R
Частота : 48,0 КГц
Битовая глубина : 16 бит
Метод сжатия : С потерями
Размер потока : 6,90 Мбайт (1%)

Меню
Время раздачи: с 09 до 00.00 (Киев), отдача: 100 кб/с (анальный инет)
1 Большая просьба, помогайте другим скачать (тогда релизов будет больше)
2 Если нет сидов - пишите в лс
3 Если сдохли постеры и скриншоты - пишите в лс
Трекер:  [ 15-Мар-2015 17:30 ]

Размер .torrent файла 11 KB


Размер: 2 GB
Хэш (hash) релиза: bcc80eed381385f25217b5dd1f4dc4be3b1d67d7
Подписка на обновления:

Еще никто не оставлял запись к записи скачать торрент Furueru Kuchibiru Дрожащие губы . Будь первым!

!Обратная связь
//main.js show_panel