Статистика раздачи
Размер:  769 MB   |    Зарегистрирован:  2 года   |    .torrent скачан:  66 раз   |   

Пиры будут получены при скачивании

 

Скачать порно Eine Schrecklich nette Familie / Schmutzige Sünden / Die Ehe Hure / Schmutzige Sunden / Ужасно миловидная семья ) через торрент бесплатно :: UnionPron.org

 
 
Автор Сообщение

Sakura

avatar Sakura


Eine Schrecklich nette Familie | Schmutzige Sünden
Die Ehe Hure | Schmutzige Sunden | Ужасно миловидная семья


[url=...1230369] [/url][url=...1209582] [/url]
Год производства: 2001 г.
Страна: Germany | Германия
Жанр: Feature
Продолжительность: 01:41:16
Язык: Немецкий

Режиссер: Fernando H.
Студия: Multi Media Verlag (MMV)

В ролях:
Actresses
[url=...1230369]Denise La Bouche[/url]
Fredericke Stanza
[url=...1209582]Kelly Trump[/url]
Monique La Belle
Vicky Leander

Actors
Conny Dachs
Jens Modena
Rex Morrison
Steve Holmes

Описание: Репортаж из жизни одной немецкой семейки...
Для тех кто просил неподеленную версию!

Scenes:
1. Steve Holmes, [url=...1209582]Kelly Trump[/url] (anal facial)
2. Conny Dachs, Monique la Belle (as Diana)
3. Steve Holmes, XNK2513 as Moni or Lydia Weser (anal)
4. Cony Dachs, [url=...1209582]Kelly Trump[/url]
5. K. Kaden, Sabine Mutsch (bj)
6. K. Kaden, [url=...1230369]Denise (as Denise La Bouche)[/url] (facial)
7. Jens Modena, Barbara as Moni or Lydia Weser
General
Format : Windows Media
File size : 728 MiB
Duration : 1h 39mn
Overall bit rate mode : Constant
Overall bit rate : 1 018 Kbps
Maximum Overall bit rate : 1 020 Kbps
Performer : ADULTBOUNCER.COM
Encoded date : UTC 2003-11-16 21:45:45.843
Copyright : All Rights Reserved
Video #2
ID : 2
Format : WMV2
Codec ID : WMV2
Codec ID/Info : Windows Media Video 8
Description of the codec : Windows Media Video V8
Duration : 1h 39mn
Bit rate mode : Constant
Bit rate : 988 Kbps
Width : 512 pixels
Height : 384 pixels
Display aspect ratio : 4/3
Frame rate : 29.970 fps
Resolution : 24 bits
Bits/(Pixel*Frame) : 0.168
Stream size : 706 MiB (97%)
Language : en-US
Audio #1
ID : 1
Format : WMA2
Codec ID : 161
Codec ID/Info : Windows Media Audio 2
Description of the codec : Windows Media Audio 9 - 20 kbps, 16 kHz, stereo 1-pass CBR
Duration : 1h 39mn
Bit rate mode : Constant
Bit rate : 20.0 Kbps
Channel(s) : 2 channels
Sampling rate : 16.0 KHz
Resolution : 16 bits
Stream size : 14.3 MiB (2%)
Качество видео: VOD
Формат видео: MPG
Видео: MPEG 1, 352x288 (4:3), 25.000 fps, 814 Kbps (0.321 bit/pixel)
Аудио: MP2, 44.1 KHz, 2 ch, 224 Kbps, CBR
[url=...1076339]Eine Schrecklich nette Familie (728 MB) [split scenes][/url]
Трекер:  [ 14-Мар-2015 13:00 ]

Размер .torrent файла 16 KB


Размер: 769 MB
Хэш (hash) релиза: b67919474ffb95189c0c70b6942fd0d23fa15794
Подписка на обновления:

Еще никто не оставлял запись к записи скачать торрент Eine Schrecklich nette Familie Schmutzige Sünden . Будь первым!

!Обратная связь
//main.js show_panel