Статистика раздачи
Размер:  2 GB   |    Зарегистрирован:  2 года   |    .torrent скачан:  115 раз   |   

Пиры будут получены при скачивании

 

Скачать порно Die Bett-Hostessen / Постельный эскорт через торрент бесплатно :: UnionPron.org

 
 
Автор Сообщение

Sakura

avatar Sakura


Die Bett-Hostessen / Постельный эскорт

Год производства: 1973 г.
Страна: Швейцария
Жанр: Comedy
Продолжительность: 01:16:27
Язык: Русский
Перевод: Одноголосый закадровый [Переводчик не опознан]

Режиссер: Erwin C. Dietrich
В ролях: Ingrid Steeger, Karin Hofmann, Christa Free

Описание: Молодой человек делится с продюссером рассказами о своих эротических похождениях..



Качество видео: DVD5
Формат видео: VOB
Видео: MPEG-2, 4821 Кбит/сек, PAL (704x576@768x576), 25,000 кадров/сек, 0.476 Бит/(Пиксели*Кадры)
Аудио №1: AC3, 192 Кбит/сек, 2 канала, 48,0 КГц (Русский)
Аудио №2: AC3, 128 Кбит/сек, 2 канала, 48,0 КГц (Немецкий)
Аудио №3: AC3, 128 Кбит/сек, 2 канала, 48,0 КГц (Французский)
Аудио №4: AC3, 128 Кбит/сек, 2 канала, 48,0 КГц (Английский)
Общее
Формат : MPEG-PS
Размер файла : 1024 Мбайт
Продолжительность : 25 м.
Режим общего битрейта : Переменный
Общий поток : 5507 Кбит/сек

Видео
Идентификатор : 224 (0xE0)
Формат : MPEG Video
Версия формата : Version 2
Профиль формата : Main@Main
Параметр BVOP формата : Да
Параметр матрицы формата : Выборочная
Параметр GOP формата : M=3, N=3
Format_Settings_PictureStructure : Frame
Продолжительность : 25 м.
Вид битрейта : Переменный
Битрейт : 4821 Кбит/сек
Максимальный битрейт : 6800 Кбит/сек
Ширина : 704 пикселя
Высота : 576 пикселей
Соотношение сторон : 4:3
Частота кадров : 25,000 кадров/сек
Стандарт вещания : PAL
Цветовое пространство : YUV
Субдискретизация насыщенности : 4:2:0
Битовая глубина : 8 бит
Тип развёртки : Чересстрочная
Порядок развёртки : Верхнее поле первое
Метод сжатия : С потерями
Бит/(Пиксели*Кадры) : 0.476
Временной код первого кадра : 00:00:04:20
Оригинал временного кода : Group of pictures header
Размер потока : 897 Мбайт (88%)

Аудио #1
Идентификатор : 189 (0xBD)-128 (0x80)
Формат : AC-3
Формат/Информация : Audio Coding 3
Расширение режима : CM (complete main)
Параметр Endianness формата : Big
Режим смешивания : DVD-Video
Продолжительность : 25 м.
Вид битрейта : Постоянный
Битрейт : 192 Кбит/сек
Каналы : 2 канала
Расположение каналов : Front: L R
Частота : 48,0 КГц
Битовая глубина : 16 бит
Метод сжатия : С потерями
Задержка видео : -80 мс.
Размер потока : 35,7 Мбайт (3%)

Аудио #2
Идентификатор : 189 (0xBD)-129 (0x81)
Формат : AC-3
Формат/Информация : Audio Coding 3
Расширение режима : CM (complete main)
Параметр Endianness формата : Big
Режим смешивания : DVD-Video
Продолжительность : 25 м.
Вид битрейта : Постоянный
Битрейт : 128 Кбит/сек
Каналы : 2 канала
Расположение каналов : Front: L R
Частота : 48,0 КГц
Битовая глубина : 16 бит
Метод сжатия : С потерями
Задержка видео : -80 мс.
Размер потока : 23,8 Мбайт (2%)

Аудио #3
Идентификатор : 189 (0xBD)-130 (0x82)
Формат : AC-3
Формат/Информация : Audio Coding 3
Расширение режима : CM (complete main)
Параметр Endianness формата : Big
Режим смешивания : DVD-Video
Продолжительность : 25 м.
Вид битрейта : Постоянный
Битрейт : 128 Кбит/сек
Каналы : 2 канала
Расположение каналов : Front: L R
Частота : 48,0 КГц
Битовая глубина : 16 бит
Метод сжатия : С потерями
Задержка видео : -80 мс.
Размер потока : 23,8 Мбайт (2%)

Аудио #4
Идентификатор : 189 (0xBD)-131 (0x83)
Формат : AC-3
Формат/Информация : Audio Coding 3
Расширение режима : CM (complete main)
Параметр Endianness формата : Big
Режим смешивания : DVD-Video
Продолжительность : 25 м.
Вид битрейта : Постоянный
Битрейт : 128 Кбит/сек
Каналы : 2 канала
Расположение каналов : Front: L R
Частота : 48,0 КГц
Битовая глубина : 16 бит
Метод сжатия : С потерями
Задержка видео : -80 мс.
Размер потока : 23,8 Мбайт (2%)

Меню
Title: Die Betthostessen_1972
Size: 2.95 Gb ( 3 094 032,00 KBytes ) - DVD-5
Enabled regions: 1, 2, 3, 4, 5, 6, 7, 8

VTS_01 :
Play Length: 01:16:27
Video: PAL 4:3 (704x576) VBR
Audio:
Russian (Dolby AC3, 2 ch)
Not specified (Dolby AC3, 2 ch)
Not specified (Dolby AC3, 2 ch)
Not specified (Dolby AC3, 2 ch)

VTS_02 :
Play Length: 00:00:05
Video: PAL 4:3 (720x576) VBR

VTS_03 :
Play Length: 00:00:06
Video: PAL 16:9 (720x576) VBR, Auto Letterboxed
Трекер:  [ 12-Мар-2015 12:30 ]

Размер .torrent файла 16 KB


Размер: 2 GB
Хэш (hash) релиза: 68a332b981a82441668a66fe0ab888ea871d4564
Подписка на обновления:

Торренты, похожие на Die Bett-Hostessen Постельный эскорт скачать торрент

Форум Название Автор Размер S L Добавлен
Эротические и Документальные фильмы (DVD и HD) / Erotic, Documentary & Reality (DVD & HD) ·· Die Bett-Hostessen / Постельный эскорт (Erwin C. Dietrich, Ascot Elite) [1973 г., Erotic, Comedy, BDRip, 1080p] [rus] Sakura 83545376127.78 GB 0 0 1442008837

02:00

12-Сен-15

Эротические и Документальные фильмы (DVD и HD) / Erotic, Documentary & Reality (DVD & HD) ·· Die Bett-Hostessen / Постельный эскорт (Erwin C. Dietrich, Ascot Elite) [1973 г., Erotic, Comedy, Blu-Ray Remux, 1080p] [rus] Sakura 2188458988420.38 GB 0 0 1441636247

18:30

7-Сен-15

Эротические фильмы / Erotic Movies ·· Die Bett-Hostessen / Постельный эскорт (Эрвин С Дитрих / Erwin C. Dietrich) [1973 г., комедия, DVDRip-AVC] [rus] Sakura 15556681591.45 GB 0 0 1426113011

02:30

12-Мар-15

Эротические фильмы / Erotic Movies ·· Die Bett-Hostessen / Постельный эскорт (Эрвин С Дитрих / Erwin C. Dietrich) [1973 г., комедия, DVDRip-AVC] [rus] Sakura 780143040744 MB 0 0 1426113007

02:30

12-Мар-15

Эротические фильмы / Erotic Movies ·· Die Bett-Hostessen / Постельный эскорт (Erwin C. Dietrich) [1973 г., Comedy, DVDRip] Sakura 913914766872 MB 0 0 1417469407

01:30

2-Дек-14

Еще никто не оставлял запись к записи скачать торрент Die Bett-Hostessen Постельный эскорт . Будь первым!

!Обратная связь
//main.js show_panel