Статистика раздачи
Размер:  2 GB   |    Зарегистрирован:  1 год 11 месяцев   |    .torrent скачан:  30 раз   |   

Пиры будут получены при скачивании

 

Скачать порно Papa to Kiss in the Dark / Kiss in the Dark через торрент бесплатно :: UnionPron.org

 
 
Автор Сообщение

Sakura

avatar Sakura


Papa to Kiss in the Dark / パパと♥KISS IN THE DARK / Kiss in the Dark

Год производства: 2005 г.
Жанр: Comedy, Romance, Softcore, Yaoi, Students
Серии: ep. 1-2 of 2
Продолжительность: 2х~26 min
Цензура: Отсутствует

Озвучка: Японская (Оригинальная)
Субтитры: Английские

Режиссер: Masekiryou Asumi
Автор оригинала: Nanbara Ken
Студия: TNK, Kitty Media

Описание RUS: Сей хентай - это яой чистой воды, так что тем кто любит такие темы нужно посмотреть. Сюжет таков - Мунаката Мира бесконечно влюблен в своего отца знаменитого голливудского актера, Мунакату Кёске. Они стараются не афишировать свои отношения.Когда парню исполняется 15 он переходит в старшую школу, где судьба вновь сводит его с близким другом детства, который еще и оказывается неровно дышит к Мире, и признается ему в своих чувствах.

Описание ENG: Munakata Mira is in love with his father, the famous Hollywood actor Munakata Kyousuke. Unknown to the public, both of them are father and son as well as lovers. When Mira turns 15 and enters high school, he faces trouble with his childhood friend falling in love with him. Also, finding out he is adopted only distresses him further. Then there's the problem of Kyousuke probably marrying a famous actress, whose son seems to have an interest in Mira.

Информационные ссылки: AniDB - MAL - World Art

Качество видео: DVD5
Формат видео: DVD Video
Видео кодек: MPEG2
Аудио кодек: AC3
Видео: 720х480, (4:3), 29,970 кадров/сек, ~ 8000 Кбит/сек, NTSC
Аудио: JAP, AC-3, 2 канала, 192 Кбит/сек, 48,0 КГц
Доп. материалы: Трейлеры
Общее
Полное имя : H:\VIDEO_TS\VTS_01_1.VOB
Формат : MPEG-PS
Размер файла : 1024 Мбайт
Продолжительность : 17 м.
Общий поток : 8352 Кбит/сек

Видео
Идентификатор : 224 (0xE0)
Формат : MPEG Video
Версия формата : Version 2
Профиль формата : Main@Main
Параметр BVOP формата : Да
Параметр матрицы формата : По умолчанию
Параметр GOP формата : M=3, N=13
Format_Settings_PictureStructure : Frame
Продолжительность : 17 м.
Битрейт : 8000 Кбит/сек
Ширина : 720 пикселей
Высота : 480 пикселей
Соотношение сторон : 4:3
Частота кадров : 29,970 кадров/сек
Стандарт вещания : NTSC
Цветовое пространство : YUV
Субдискретизация насыщенности : 4:2:0
Битовая глубина : 8 бит
Тип развёртки : Чересстрочная
Порядок развёртки : Верхнее поле первое
Метод сжатия : С потерями
Бит/(Пиксели*Кадры) : 0.772
Временной код первого кадра : 01:00:00:00
Оригинал временного кода : Group of pictures header
Размер потока : 980 Мбайт (96%)
Основные цвета : BT.601 NTSC
Характеристики трансфера : BT.601
Коэффициенты матрицы : BT.601

Аудио
Идентификатор : 189 (0xBD)-128 (0x80)
Формат : AC-3
Формат/Информация : Audio Coding 3
Расширение режима : CM (complete main)
Параметр Endianness формата : Big
Режим смешивания : DVD-Video
Продолжительность : 17 м.
Вид битрейта : Постоянный
Битрейт : 192 Кбит/сек
Каналы : 2 канала
Расположение каналов : Front: L R
Частота : 48,0 КГц
Битовая глубина : 16 бит
Метод сжатия : С потерями
Размер потока : 23,5 Мбайт (2%)

Текст
Идентификатор : 189 (0xBD)-32 (0x20)
Формат : RLE
Формат/Информация : Run-length encoding
Режим смешивания : DVD-Video
Задержка видео : 901 мс.

Меню
Время раздачи: с 09 до 00.00 (Киев), отдача: 100 кб/с (анальный инет)
1 Большая просьба, помогайте другим скачать (тогда релизов будет больше)
2 Если нет сидов - пишите в лс
3 Если сдохли постеры и скриншоты - пишите в лс
Трекер:  [ 08-Мар-2015 13:30 ]

Размер .torrent файла 17 KB


Размер: 2 GB
Хэш (hash) релиза: 1c71134458ea1f65aa766fdab8548927ed4a0542
Подписка на обновления:

Еще никто не оставлял запись к записи скачать торрент Papa to Kiss in the Dark Kiss in the Dark . Будь первым!

!Обратная связь
//main.js show_panel