Статистика раздачи
Размер:  1.11 GB   |    Зарегистрирован:  1 год 10 месяцев   |    .torrent скачан:  89 раз   |   

Пиры будут получены при скачивании

 

Скачать порно Die Mädchen von St. Tropez / Девушки Сан-Тропе через торрент бесплатно :: UnionPron.org

 
 
Автор Сообщение

Sakura

avatar Sakura


Die Mädchen von St. Tropez / Девушки Сан-Тропе


Год производства: 1981 г.
Страна: France
Жанр: Feature, Classic
Продолжительность: 01:14:06
Язык: Немецкий
Режиссер: Gérard Kikoïne
Студия: Tabu
В ролях:
Marilyn Jess, Mika Barthel, Veronique Celes, Cathy Menard, Dominique St. Clair, Alban Ceray, Jean Pierre Armand.
Описание:
Heisser Sommer 1981 an der Cöte d´Azur. Die Advokaten-Töchter Brigitt (gespielt vom damaligen französischen Porno-Superstar Marilyn Jess) und ihre Freundin Kathy (Mika Barthel) lernen am Strand Roddy und Eddy kennen. Die beiden Draufgänger wollen einen Porno drehen und verführen die attraktiven Mädels zu hemmungslosen Sex-Spielen, die sie heimlich filmen. In luxuriösen Mittelmeer-Villen, auf Yachten und Rennbooten, in der Disco treibt es die wachsende Sex-Clique immer wilder. Werden Roddy und Eddy ihren heissen Streifen zu Ende drehen können, oder kommt man ihnen am Ende doch noch auf die Schliche?
Die exzessive Geschichte - u.a. mit einer legendären Szene, bei der Cathy Menard bis zum Hals im Strand eingegraben einen Blowjob verrichtet - und die internationale Star-Besetzung machten diesen Film zu einem Klassiker der Pornografie. Neu vom Original-Negativ abgetastet, digitalisiert und aufbereitet, ist er nun in nie da gewesener Qualität endlich wieder zu sehen.

Доп. информация:
http://www.sexvideoall.com/en/dvd93979_maedchen-von-st-tropez-blu-ray-online.aspx

Release.Notes.: Diese Alternative / Kinofassung des Films ist als Bonus auf der BD enthalten.
Качество видео: BDRip (Blu-ray)
Формат видео: MP4
Видео: MPEG4 Video (H264), 720x526, 25fps, 1973kbps
Аудио: AAC, 48000Hz, 2 channels, 173kbps
General
Complete name : C:\Die Madchen von St. Tropez - TRV\Die.Maedchen.Von.St.Tropez.THEATRICAL.GERMAN.XXX.BDRiP.x264-TattooLovers\tatlov-maedchenvonsttropezth.mp4
Format : MPEG-4
Format profile : Base Media
Codec ID : isom
File size : 1.11 GiB
Duration : 1h 14mn
Overall bit rate mode : Variable
Overall bit rate : 2 151 Kbps
Encoded date : UTC 2015-03-02 13:26:40
Tagged date : UTC 2015-03-02 13:26:40

Video
ID : 1
Format : AVC
Format/Info : Advanced Video Codec
Format profile : High@L3.1
Format settings, CABAC : Yes
Format settings, ReFrames : 5 frames
Codec ID : avc1
Codec ID/Info : Advanced Video Coding
Duration : 1h 14mn
Bit rate : 1 973 Kbps
Maximum bit rate : 7 252 Kbps
Width : 720 pixels
Height : 526 pixels
Display aspect ratio : 4:3
Frame rate mode : Constant
Frame rate : 25.000 fps
Color space : YUV
Chroma subsampling : 4:2:0
Bit depth : 8 bits
Scan type : Progressive
Bits/(Pixel*Frame) : 0.208
Stream size : 1.02 GiB (92%)
Writing library : x264 core 146 r2538 121396c
Encoding settings : cabac=1 / ref=5 / deblock=1:-2:-2 / analyse=0x3:0x113 / me=umh / subme=8 / psy=1 / psy_rd=1.00:0.00 / mixed_ref=1 / me_range=16 / chroma_me=1 / trellis=1 / 8x8dct=1 / cqm=0 / deadzone=21,11 / fast_pskip=0 / chroma_qp_offset=-2 / threads=6 / lookahead_threads=1 / sliced_threads=0 / nr=0 / decimate=1 / interlaced=0 / bluray_compat=0 / constrained_intra=0 / bframes=3 / b_pyramid=2 / b_adapt=2 / b_bias=0 / direct=3 / weightb=1 / open_gop=0 / weightp=2 / keyint=250 / keyint_min=25 / scenecut=40 / intra_refresh=0 / rc_lookahead=50 / rc=crf / mbtree=1 / crf=21.0 / qcomp=0.60 / qpmin=0 / qpmax=69 / qpstep=4 / vbv_maxrate=17500 / vbv_bufsize=17500 / crf_max=0.0 / nal_hrd=none / filler=0 / ip_ratio=1.40 / aq=1:1.00
Encoded date : UTC 2015-03-02 13:26:40
Tagged date : UTC 2015-03-02 13:27:42

Audio
ID : 2
Format : AAC
Format/Info : Advanced Audio Codec
Format profile : LC
Codec ID : 40
Duration : 1h 14mn
Bit rate mode : Variable
Bit rate : 174 Kbps
Maximum bit rate : 185 Kbps
Channel(s) : 2 channels
Channel positions : Front: L R
Sampling rate : 48.0 KHz
Compression mode : Lossy
Stream size : 92.0 MiB (8%)
Language : German
Encoded date : UTC 2015-03-02 13:23:55
Tagged date : UTC 2015-03-02 13:27:42

Трекер:  [ 05-Мар-2015 05:30 ]

Размер .torrent файла 12 KB


Размер: 1.11 GB
Хэш (hash) релиза: bba04346016582cac89dc9fba571137e5fd11560
Подписка на обновления:

Еще никто не оставлял запись к записи скачать торрент Die Mädchen von St. Tropez Девушки Сан-Тропе . Будь первым!

!Обратная связь
//main.js show_panel