Статистика раздачи
Размер:  737 MB   |    Зарегистрирован:  2 года 5 месяцев   |    .torrent скачан:  142 раза   |   

Пиры будут получены при скачивании

 

Скачать порно Magic Eros / Cyber-sexe et perversions / Волшебный Эрос через торрент бесплатно :: UnionPron.org

 
 
Автор Сообщение

Sakura

avatar Sakura


Magic Eros | Cyber-sexe et perversions | Волшебный Эрос

[url=...1098941] [/url][url=...1015213] [/url]
Год производства: 1998 г.
Страна: Италия | Italy
Жанр: Feature
Продолжительность: 01:49:42
Язык: Немецкий

Режиссер: Francis Carrello
Студия: Capital Film

В ролях:
Actresses
[url=...1076208]Anita Blond (as Anita Blonde)[/url] [Facial]
[url=...1098941]Erika Bella[/url] [Anal Facial]
Deborah Valentine (as Gabriella Bucci) [Anal Facial DP DPP]
Judith Vegh (as Judith Veigh) [Facial]
[url=...1015213]Lea Martini[/url]
Ursula Moore [Facial IR]

Actors
Andrew Youngman (as Andras)
Franco Roccaforte
Frank Gun (as Frank Mallone)
Zenza Raggi (as Karim)
Mike Foster
Philippe Dean
Reinhardt

Описание: Выпускница колледжа приходит на работу в фирму и вместе со своей руководительницей занимается разработкой компьютерной программы виртуального секса <Волшебный Эрос>. Появление молодого красавца - бизнесмена, оказавшегося перед выбором между двумя женщинами может нарушить все планы компании. Но выход, к удовольствию всех троих, был найден.

Produced by: Joe D'Amato, Salvo Di Liberto, Giusy Ferrera

Written by: D'Salvo

Scene Breakdowns:
Scene 1. Ursula Moore, Franco Roccaforte
Scene 2. [url=...1098941]Erika Bella[/url], Judith Vegh, Andrew Youngman
Scene 3. Deborah Valentine, Frank Gun, Zenza Raggi, Reinhardt
Scene 4. [url=...1076208]Anita Blond[/url], Mike Foster
Scene 5. [url=...1098941]Erika Bella[/url], Zenza Raggi
Scene 6. [url=...1098941]Erika Bella[/url], Reinhardt
Scene 7. [url=...1076208]Anita Blond[/url], [url=...1098941]Erika Bella[/url]
Scene 8. [url=...1015213]Lea Martini[/url], Zenza Raggi
Scene 9. [url=...1076208]Anita Blond[/url], Philippe Dean
Scene 10. [url=...1098941]Erika Bella[/url], Zenza Raggi
General
Format : AVI
Format/Info : Audio Video Interleave
File size : 736 MiB
Duration : 1h 49mn
Overall bit rate : 938 Kbps
Writing library : VirtualDub build 32842/release
Video
Format : MPEG-4 Visual
Format settings, BVOP : Yes
Format settings, QPel : No
Format settings, GMC : No warppoints
Format settings, Matrix : Default (H.263)
Codec ID : DIVX
Codec ID/Info : Project Mayo
Codec ID/Hint : DivX 4
Duration : 1h 49mn
Bit rate : 800 Kbps
Width : 640 pixels
Height : 480 pixels
Display aspect ratio : 4/3
Frame rate : 25.000 fps
Resolution : 24 bits
Scan type : Progressive
Bits/(Pixel*Frame) : 0.104
Stream size : 628 MiB (85%)
Audio
Format : MPEG Audio
Format version : Version 1
Format profile : Layer 3
Codec ID : 55
Codec ID/Hint : MP3
Duration : 1h 49mn
Bit rate mode : Constant
Bit rate : 128 Kbps
Channel(s) : 2 channels
Sampling rate : 44.1 KHz
Resolution : 16 bits
Stream size : 100 MiB (14%)
Alignment : Split accross interleaves
Interleave, duration : 40 ms (1.00 video frame)
Interleave, preload duration : 500 ms
Качество видео: DVDRip
Формат видео: AVI
Видео: MPEG4, DivX 4, 640x480 (4:3), 25.000 fps, 800 Kbps (0.104 bit/pixel)
Аудио: MP3, 44.1 KHz, 2 ch, 128 Kbps, CBR
[url=...625253]Magic eros (686 MB) [rus][/url]
Трекер:  [ 01-Мар-2015 20:30 ]

Размер .torrent файла 15 KB


Размер: 737 MB
Хэш (hash) релиза: 43daa7790225d35c89cf36646bfadea31d8a4c63
Подписка на обновления:

Еще никто не оставлял запись к записи скачать торрент Magic Eros Cyber-sexe et perversions . Будь первым!

!Обратная связь
//main.js show_panel