Статистика раздачи
Размер:  1.11 GB   |    Зарегистрирован:  1 год 10 месяцев   |    .torrent скачан:  110 раз   |   

Пиры будут получены при скачивании

 

Скачать порно Futabu!! / Futa Club!! / Футабу!! через торрент бесплатно :: UnionPron.org

 
 
Автор Сообщение

Sakura

avatar Sakura


Futabu!! / Futa Club!! / ふた部!! / Футабу!!

Год производства: 2015 г.
Жанр: Anal sex, Big tits, Tiny tits, Group sex, Oral sex, Futanari, Students
Серии: ep. 1 of 2
Продолжительность: 1х~20 min
Цензура: Есть

Озвучка: Японская (Оригинальная)

Режиссер: Yoshiten
Автор оригинала: Bosshi
Студия: White Bear, Studio 9 Maiami

Описание RUS: Продолжение приключений девушек из клуба "Футабу", место действия переносится на живописный курорт с горячими источниками.

Описание ENG: Continuing adventures of the girls from the club "Futaba", the scene is transferred to the scenic hot spring resort.

Информационные ссылки: AniDB - MAL - World Art - ХентайМаг
Доп. информация: На основе хентай-манги. Первая часть хентая [url=...1816468]тут[/url]

Качество видео: DVD5
Формат видео: DVD Video
Видео кодек: MPEG2
Аудио кодек: AC3
Видео: 720х480, (16:9), 29,970 кадров/сек, ~ 6889 Кбит/сек, NTSC
Аудио: JAP, AC-3, 2 канала, 256 Кбит/сек, 48,0 КГц
Общее
Полное имя : H:\VIDEO_TS\VTS_01_1.VOB
Формат : MPEG-PS
Размер файла : 1024 Мбайт
Продолжительность : 19 м.
Режим общего битрейта : Переменный
Общий поток : 7290 Кбит/сек

Видео
Идентификатор : 224 (0xE0)
Формат : MPEG Video
Версия формата : Version 2
Профиль формата : Main@Main
Параметр BVOP формата : Да
Параметр матрицы формата : По умолчанию
Параметр GOP формата : Variable
Продолжительность : 19 м.
Вид битрейта : Переменный
Битрейт : 6889 Кбит/сек
Максимальный битрейт : 8000 Кбит/сек
Ширина : 720 пикселей
Высота : 480 пикселей
Соотношение сторон : 16:9
Частота кадров : 29,970 кадров/сек
Стандарт вещания : NTSC
Цветовое пространство : YUV
Субдискретизация насыщенности : 4:2:0
Битовая глубина : 8 бит
Тип развёртки : Прогрессивная
Метод сжатия : С потерями
Бит/(Пиксели*Кадры) : 0.665
Временной код первого кадра : 00:00:00;00
Оригинал временного кода : Group of pictures header
Размер потока : 968 Мбайт (94%)

Аудио
Идентификатор : 189 (0xBD)-128 (0x80)
Формат : AC-3
Формат/Информация : Audio Coding 3
Расширение режима : CM (complete main)
Параметр Endianness формата : Big
Режим смешивания : DVD-Video
Продолжительность : 10 с.
Вид битрейта : Постоянный
Битрейт : 256 Кбит/сек
Каналы : 2 канала
Расположение каналов : Front: L R
Частота : 48,0 КГц
Битовая глубина : 16 бит
Метод сжатия : С потерями
Размер потока : 328 Кбайт (0%)

Меню
Время раздачи: с 09 до 00.00 (Киев), отдача: 100 кб/с (анальный инет)
1 Большая просьба, помогайте другим скачать (тогда релизов будет больше)
2 Если нет сидов - пишите в лс
3 Если сдохли постеры и скриншоты - пишите в лс
Трекер:  [ 24-Фев-2015 22:30 ]

Размер .torrent файла 11 KB


Размер: 1.11 GB
Хэш (hash) релиза: 74990ca8e3f4b29a36bd3c739c3f7c2b8ecd613b
Подписка на обновления:

Еще никто не оставлял запись к записи скачать торрент Futabu!! Futa Club!! . Будь первым!

!Обратная связь
//main.js show_panel