Статистика раздачи
Размер:  2 GB   |    Зарегистрирован:  2 года 5 месяцев   |    .torrent скачан:  94 раза   |   

Пиры будут получены при скачивании

 

Скачать порно Milf Riders 2 / Сисястые наездницы 2 через торрент бесплатно :: UnionPron.org

 
 
Автор Сообщение

Sakura

avatar Sakura


Milf Riders 2 / Сисястые наездницы 2

Год производства: 2008 г.
Страна: us
Жанр: hardcore, milf, Blonde, Brunette.
Продолжительность: 03.22.56

Режиссер: Major Woods
Студия: Adam & Eve

В ролях: Celestia Star, Janet, Envy, Alex, Paige Rene, Sarah

Описание: You won't believe how dirty these experienced moms get! Watch as these sexy MILFs suck and fuck like sex starved maniacs who's only desire is a hard cock! Enjoy!

Вы не поверите когда увидите на что способны опытные мамаши. Смотрите как изголодавшиеся сексуальные мамаши получают своё. Наслаждайтесь!
Доп. информацияMilf Riders 2 (2008) - Celestia Star, Janet, Envy, Alex, Paige Rene, Sarah.avi
General
Complete name :Milf Riders 2 (2008) - Celestia Star, Janet, Envy, Alex, Paige Rene, Sarah.avi
Format : AVI
Format/Info : Audio Video Interleave
Format profile : OpenDML
File size : 2.02 GiB
Duration : 3h 22mn
Overall bit rate : 1 428 Kbps
Writing application : VirtualDubMod 1.5.10.2 (build 2540/release)
Writing library : VirtualDub build 35491/release
Video #0
ID : 0
Format : MPEG-4 Visual
Format profile : AdvancedSimple@L5
Format settings, BVOP : Yes
Format settings, QPel : No
Format settings, GMC : No warppoints
Format settings, Matrix : Default (MPEG)
Codec ID : XVID
Codec ID/Hint : XviD
Duration : 3h 22mn
Bit rate : 1 305 Kbps
Width : 512 pixels
Height : 384 pixels
Display aspect ratio : 4:3
Frame rate : 29.970 fps
Resolution : 24 bits
Colorimetry : 4:2:0
Scan type : Interlaced
Scan order : Bottom Field First
Bits/(Pixel*Frame) : 0.221
Stream size : 1.85 GiB (91%)
Writing library : XviD 1.1.2 (UTC 2006-11-01)
Audio #1
ID : 1
Format : MPEG Audio
Format version : Version 1
Format profile : Layer 3
Codec ID : 55
Codec ID/Hint : MP3
Duration : 3h 22mn
Bit rate mode : Variable
Bit rate : 106 Kbps
Channel(s) : 2 channels
Sampling rate : 48.0 KHz
Resolution : 16 bits
Stream size : 153 MiB (7%)
Alignment : Aligned on interleaves
Interleave, duration : 24 ms (0.72 video frame)
Interleave, preload duration : 221 ms
Качество видео: DVDRip
Формат видео: AVI
Видео: XviD, 512x384, 29fps, 1305Kbps
Аудио: mp3,16bit, bitrate 106Kbps
Трекер:  [ 23-Фев-2015 21:30 ]

Размер .torrent файла 10 KB


Размер: 2 GB
Хэш (hash) релиза: 6e7abe712765f1b64cda45b535f0eeb8098cc377
Подписка на обновления:

Еще никто не оставлял запись к записи скачать торрент Milf Riders 2 Сисястые наездницы 2 . Будь первым!

!Обратная связь
//main.js show_panel