Статистика раздачи
Размер:  2 GB   |    Зарегистрирован:  2 года 4 месяца   |    .torrent скачан:  43 раза   |   

Пиры будут получены при скачивании

 

Скачать порно Otome Hime / Нетронутая принцесса через торрент бесплатно :: UnionPron.org

 
 
Автор Сообщение

Sakura

avatar Sakura


Otome Hime / オトメヒメ / Нетронутая принцесса

Год производства: 2014 г.
Жанр: Anal sex, Big tits, Oral sex, Romance, Virgin
Серии: ep. 1
Продолжительность: 1х~25 min + 6 min трейлеры
Цензура: Есть

Озвучка: Японская (Оригинальная)

Режиссер: Oota Hideta
Автор оригинала: Miyabi
Студия: Pashmina, Studio 1st

Описание RUS: Занимаясь вместе, Мегуми Окуно признаётся в любви соседу по парте - Сатору Синдо. Сатору в недоумении, ведь Мегуми самая привлекательная девушка в классе. Но, его добрые поступки и влюбленные взгляды не могли укрыться от взора Мегуми. Однажды, делая вместе домашнее задания, девушка решается признаться молодому человеку в своих чувствах. И после этих слов Мегуми, сексуальный лев, дремлющий в Сатору, просыпается... ©hentaimag.ru

Описание ENG: Catching up, Megumi Okuno declaration of love to the neighbor's party - Satoru Cindy. Satoru at a loss, because Megumi most attractive girl in the class. But his good deeds and love the views could not hide from the eyes of Megumi. One day, while doing homework together, she decided to admit the young man in his feelings. And after these words Megumi, sexy lion dormant in Satoru wakes up.

Информационные ссылки: AniDB - MAL - World Art - ХентайМаг
Доп. информация: На основе хентай-манги.

Качество видео: DVD5
Формат видео: DVD Video
Видео кодек: MPEG2
Аудио кодек: AC3
Видео: 720х480, (16:9), 29,970 кадров/сек, ~ 8000 Кбит/сек, NTSC
Аудио: JAP, AC-3, 2 канала, 384 Кбит/сек, 48,0 КГц
Общее
Полное имя : H:\VIDEO_TS\VTS_05_1.VOB
Формат : MPEG-PS
Размер файла : 1024 Мбайт
Продолжительность : 16 м.
Общий поток : 8532 Кбит/сек

Видео
Идентификатор : 224 (0xE0)
Формат : MPEG Video
Версия формата : Version 2
Профиль формата : Main@Main
Параметр BVOP формата : Да
Параметр матрицы формата : Выборочная
Параметр GOP формата : M=3, N=15
Format_Settings_PictureStructure : Frame
Продолжительность : 16 м.
Битрейт : 8000 Кбит/сек
Ширина : 720 пикселей
Высота : 480 пикселей
Соотношение сторон : 16:9
Частота кадров : 29,970 кадров/сек
Стандарт вещания : NTSC
Цветовое пространство : YUV
Субдискретизация насыщенности : 4:2:0
Битовая глубина : 8 бит
Тип развёртки : Чересстрочная
Порядок развёртки : Верхнее поле первое
Метод сжатия : С потерями
Бит/(Пиксели*Кадры) : 0.772
Временной код первого кадра : 00:00:12;00
Оригинал временного кода : Group of pictures header
Размер потока : 958 Мбайт (94%)
Gop_OpenClosed_FirstFrame : Closed

Аудио
Идентификатор : 189 (0xBD)-128 (0x80)
Формат : AC-3
Формат/Информация : Audio Coding 3
Расширение режима : CM (complete main)
Параметр Endianness формата : Big
Режим смешивания : DVD-Video
Продолжительность : 16 м.
Вид битрейта : Постоянный
Битрейт : 384 Кбит/сек
Каналы : 2 канала
Расположение каналов : Front: L R
Частота : 48,0 КГц
Битовая глубина : 16 бит
Метод сжатия : С потерями
Размер потока : 46,1 Мбайт (4%)

Меню
Время раздачи: с 09 до 00.00 (Киев), отдача: 100 кб/с (анальный инет)
1 Большая просьба, помогайте другим скачать (тогда релизов будет больше)
2 Если нет сидов - пишите в лс
3 Если сдохли постеры и скриншоты - пишите в лс
Трекер:  [ 21-Фев-2015 16:00 ]

Размер .torrent файла 10 KB


Размер: 2 GB
Хэш (hash) релиза: 2e434a00b8ea09171d996af739d6dc74871646d4
Подписка на обновления:

Еще никто не оставлял запись к записи скачать торрент Otome Hime Нетронутая принцесса . Будь первым!

!Обратная связь
//main.js show_panel