Статистика раздачи
Размер:  51 MB   |    Зарегистрирован:  2 года 3 месяца   |    .torrent скачан:  364 раза   |   

Пиры будут получены при скачивании

 

Скачать порно Псковское порно через торрент бесплатно :: UnionPron.org

 
 
Автор Сообщение

Sakura

avatar Sakura


Псковское порно

Год производства: 2009 г.
Жанр: Double Penetration
Продолжительность: 0:20:15
Режиссер: Сергей григорьев
Студия: Неизвесна

В ролях: трио высокодуховных культурных человека

Описание: двое джентельменов предлагают даме провести время вместе

Доп. информация: File size : 51.1 MiB
Duration : 20mn 15s
Overall bit rate mode : Variable
Overall bit rate : 353 Kbps
Writing application : В Кадре.ру
Tagging application : Yet Another Metadata Injector for FLV - Version 1.2-OA-modified
title : Псков снимает порно
author : сергей григорьев
created_at : 01 August 2009

Video
Format : Sorenson Spark
Codec ID : 2
Duration : 20mn 15s
Bit rate : 246 Kbps
Width : 320 pixels
Height : 240 pixels
Display aspect ratio : 4:3
Frame rate mode : Constant
Frame rate : 25.000 fps
Bit depth : 8 bits
Bits/(Pixel*Frame) : 0.128
Stream size : 36.8 MiB (72%)

Audio
Format : MPEG Audio
Format version : Version 2
Format profile : Layer 3
Mode : Joint stereo
Mode extension : MS Stereo
Codec ID : 2
Codec ID/Hint : MP3
Duration : 20mn 15s
Bit rate mode : Variable
Bit rate : 91.5 Kbps
Channel(s) : 2 channels
Sampling rate : 22.05 KHz
Compression mode : Lossy
Stream size : 14.1 MiB (28%)

Качество видео: TVRip
Формат видео: FLV
Видео: Video: Flash Video 1 320x240 25fps 251kbps [Video]
Аудио: Audio: MP3 22050Hz stereo 80kbps [Audio]
Трекер:  [ 21-Фев-2015 01:30 ]

Размер .torrent файла 16 KB


Размер: 51 MB
Хэш (hash) релиза: 41f29b04a3e441a87f21fba12b320a1ab3557b43
Подписка на обновления:

Еще никто не оставлял запись к записи скачать торрент Псковское порно . Будь первым!

!Обратная связь
//main.js show_panel