Статистика раздачи
Размер:  1.33 GB   |    Зарегистрирован:  2 года 4 месяца   |    .torrent скачан:  53 раза   |   

Пиры будут получены при скачивании

 

Скачать порно Rance 01: Hikari o Motomete The Animation / Ранс 01: В поисках Хикари через торрент бесплатно :: UnionPron.org

 
 
Автор Сообщение

Sakura

avatar Sakura


Rance 01: Hikari o Motomete The Animation / ランス01 光をもとめて THE ANIMATION / Ранс 01: В поисках Хикари

Год производства: 2014 г.
Жанр: Bondage, Big tits, Oral sex, Titsjob, X-Ray, Comedy, Fantasy, Knight
Серии: ep. 1
Продолжительность: 1х~26 min + 15 min трейлеры
Цензура: Есть

Озвучка: Японская (Оригинальная)

Режиссер: Nishikawa Takashi
Автор оригинала: Alice Soft
Студия: PinkPineapple, Seven

Описание RUS: Ранс берётся отыскать похищенную девушку по имени Хикари ("Свет"). Вместе своей рабыни Силл, он отправляется на розыски.

Описание ENG: Rance follows the namesake hero who is tasked with finding and protecting the daughter of a guild owner; however, the case turns out to be much deeper than it initially appears to be.

Информационные ссылки: AniDB - MAL - World Art - ХентайМаг
Доп. информация: На основе хентай-игры: Rance 01 - Hikari o Motomete - (2013)

Качество видео: DVD5
Формат видео: DVD Video
Видео кодек: MPEG2
Аудио кодек: AC3
Видео: 720х480, (16:9), 29,970 кадров/сек, ~ 4112 Кбит/сек, NTSC
Аудио: JAP, AC-3, 2 канала, 192 Кбит/сек, 48,0 КГц
Общее
Полное имя : H:\VIDEO_TS\VTS_01_1.VOB
Формат : MPEG-PS
Размер файла : 1024 Мбайт
Продолжительность : 32 м.
Режим общего битрейта : Переменный
Общий поток : 4391 Кбит/сек

Видео
Идентификатор : 224 (0xE0)
Формат : MPEG Video
Версия формата : Version 2
Профиль формата : Main@Main
Параметр BVOP формата : Да
Параметр матрицы формата : Выборочная
Параметр GOP формата : Variable
Format_Settings_PictureStructure : Frame
Продолжительность : 32 м.
Вид битрейта : Переменный
Битрейт : 4112 Кбит/сек
Максимальный битрейт : 9800 Кбит/сек
Ширина : 720 пикселей
Высота : 480 пикселей
Соотношение сторон : 16:9
Частота кадров : 29,970 кадров/сек
Стандарт вещания : NTSC
Цветовое пространство : YUV
Субдискретизация насыщенности : 4:2:0
Битовая глубина : 8 бит
Тип развёртки : Чересстрочная
Порядок развёртки : Верхнее поле первое
Метод сжатия : С потерями
Бит/(Пиксели*Кадры) : 0.397
Временной код первого кадра : 01:00:17:00
Оригинал временного кода : Group of pictures header
Размер потока : 959 Мбайт (94%)
Gop_OpenClosed_FirstFrame : Closed

Аудио
Идентификатор : 189 (0xBD)-128 (0x80)
Формат : AC-3
Формат/Информация : Audio Coding 3
Расширение режима : CM (complete main)
Параметр Endianness формата : Big
Режим смешивания : DVD-Video
Продолжительность : 32 м.
Вид битрейта : Постоянный
Битрейт : 192 Кбит/сек
Каналы : 2 канала
Расположение каналов : Front: L R
Частота : 48,0 КГц
Битовая глубина : 16 бит
Метод сжатия : С потерями
Размер потока : 44,8 Мбайт (4%)

Меню
Время раздачи: с 09 до 00.00 (Киев), отдача: 100 кб/с (анальный инет)
1 Большая просьба, помогайте другим скачать (тогда релизов будет больше)
2 Если нет сидов - пишите в лс
3 Если сдохли постеры и скриншоты - пишите в лс
Трекер:  [ 20-Фев-2015 17:30 ]

Размер .torrent файла 14 KB


Размер: 1.33 GB
Хэш (hash) релиза: 336b606d9535a802840229fc9b78b694cabaaed8
Подписка на обновления:

Еще никто не оставлял запись к записи скачать торрент Rance 01: Hikari o Motomete The Animation Ранс 01: В поисках Хикари . Будь первым!

!Обратная связь
//main.js show_panel