Статистика раздачи
Размер:  1.03 GB   |    Зарегистрирован:  1 год 11 месяцев   |    .torrent скачан:  78 раз   |   

Пиры будут получены при скачивании

 

Скачать порно Sei Brunehilde Gakuen Shoujo Kishidan to Junpaku no Panty The Animation / Ученица школы Святой Брунгильды через торрент бесплатно :: UnionPron.org

 
 
Автор Сообщение

Sakura

avatar Sakura


Sei Brunehilde Gakuen Shoujo Kishidan to Junpaku no Panty The Animation / 聖ブリュンヒルデ学園 少女騎士団と純白のパンティ THE ANIMATION / Ученица школы Святой Брунгильды / Рыцарь в белоснежных трусиках / Рыцарь Брюнхильда и чисто белые трусики

Год производства: 2014 г.
Жанр: Anal sex, Big tits, Oral sex, Titsjob, X-Ray, Knight, Toys
Серии: ep. 1
Продолжительность: 1х~30 min
Цензура: Есть

Озвучка: Японская (Оригинальная)

Режиссер: Ishige Rui
Автор оригинала: One-up
Студия: Hills, MS-Pictures

Описание RUS: В школе проводится турнир Рыцарей. "Король" является символом фестиваля, он определяется путем голосования.

Описание ENG: The school held a tournament Knights. "King" is the symbol of the festival, it is determined by voting.

Информационные ссылки: AniDB - MAL - World Art - ХентайМаг
Доп. информация: На основе хентай-игры: Saint Brunhilde Gakuen (2013)

Качество видео: DVD5
Формат видео: DVD Video
Видео кодек: MPEG2
Аудио кодек: AC3
Видео: 720х480, (16:9), 29,970 кадров/сек, ~ 3600 Кбит/сек, NTSC
Аудио: JAP, AC-3, 2 канала, 192 Кбит/сек, 48,0 КГц
Общее
Полное имя : H:\VIDEO_TS\VTS_01_1.VOB
Формат : MPEG-PS
Размер файла : 1024 Мбайт
Продолжительность : 1 м. 10 с.
Общий поток : 122 Мбит/сек

Видео
Идентификатор : 224 (0xE0)
Формат : MPEG Video
Версия формата : Version 2
Профиль формата : Main@Main
Параметр BVOP формата : Да
Параметр матрицы формата : Выборочная
Параметр GOP формата : M=3, N=15
Format_Settings_PictureStructure : Frame
Продолжительность : 1 м. 10 с.
Битрейт : 119 Мбит/сек
Максимальный битрейт : 9000 Кбит/сек
Ширина : 720 пикселей
Высота : 480 пикселей
Соотношение сторон : 16:9
Частота кадров : 29,970 кадров/сек
Стандарт вещания : NTSC
Цветовое пространство : YUV
Субдискретизация насыщенности : 4:2:0
Битовая глубина : 8 бит
Тип развёртки : Чересстрочная
Порядок развёртки : Верхнее поле первое
Метод сжатия : С потерями
Бит/(Пиксели*Кадры) : 11.483
Временной код первого кадра : 01:00:00:00
Оригинал временного кода : Group of pictures header
Размер потока : 1002 Мбайт (98%)

Аудио
Идентификатор : 189 (0xBD)-128 (0x80)
Формат : AC-3
Формат/Информация : Audio Coding 3
Расширение режима : CM (complete main)
Параметр Endianness формата : Big
Режим смешивания : DVD-Video
Продолжительность : 1 м. 10 с.
Вид битрейта : Постоянный
Битрейт : 192 Кбит/сек
Каналы : 2 канала
Расположение каналов : Front: L R
Частота : 48,0 КГц
Битовая глубина : 16 бит
Метод сжатия : С потерями
Размер потока : 1,61 Мбайт (0%)

Меню
Время раздачи: с 09 до 00.00 (Киев), отдача: 100 кб/с (анальный инет)
1 Большая просьба, помогайте другим скачать (тогда релизов будет больше)
2 Если нет сидов - пишите в лс
3 Если сдохли постеры и скриншоты - пишите в лс
Трекер:  [ 14-Фев-2015 18:30 ]

Размер .torrent файла 11 KB


Размер: 1.03 GB
Хэш (hash) релиза: 87461169d052eff3bb77abd2a99cedf818ff8e71
Подписка на обновления:

Торренты, похожие на Sei Brunehilde Gakuen Shoujo Kishidan to Junpaku no Panty The Animation Ученица школы Святой Брунгильды скачать торрент

Форум Название Автор Размер S L Добавлен
Хентай: основной подраздел / Hentai: main subsection ·· Sei Brunehilde Gakuen Shoujo Kishidan to Junpaku no Panty The Animation / Ученица школы Святой Брунгильды Рыцарь в белоснежных трусиках (Ishige Rui, Hills) (ep.1) [cen][2014 г. Knight, Virgin, Big tits, Anal, Oral, BDRip] [jap / eng /chi/ rus][1080] Sakura 472504299451 MB 0 0 1421402529

14:02

16-Янв-15

Хентай: основной подраздел / Hentai: main subsection ·· Sei Brunehilde Gakuen Shoujo Kishidan to Junpaku no Panty The Animation / Ученица школы Святой Брунгильды Рыцарь в белоснежных трусиках (Ishige Rui, Hills) (ep.1) [cen] [2014 г. Knight, Virgin, Big tits, Anal sex, Oral sex, DVDRip] [jap / eng rus] Sakura 327627596312 MB 0 0 1421341520

21:05

15-Янв-15

Хентай: основной подраздел / Hentai: main subsection ·· Sei Brunehilde Gakuen Shoujo Kishidan to Junpaku no Panty The Animation / Ученица школы Святой Брунгильды Рыцарь в белоснежных трусиках (Ishige Rui, Hills) (ep.1) [cen] [2014 г. Knight, Virgin, Big tits, Anal sex, Oral sex, DVDRip] [jap / eng] Sakura 327577087312 MB 0 0 1421002927

23:02

11-Янв-15

Еще никто не оставлял запись к записи скачать торрент Sei Brunehilde Gakuen Shoujo Kishidan to Junpaku no Panty The Animation Ученица школы Святой Брунгильды . Будь первым!

!Обратная связь
//main.js show_panel