Статистика раздачи
Размер:  894 MB   |    Зарегистрирован:  2 года 10 месяцев   |    .torrent скачан:  45 раз   |   

Пиры будут получены при скачивании

 

Скачать порно Seduced and Abandoned / Heute gibt's was in den Arsch / Sedotta / Seducida y Abandonada / Обольщенные и брошенные ) через торрент бесплатно :: UnionPron.org

 
 
Автор Сообщение

Sakura

avatar Sakura


Seduced and Abandoned | Heute gibt's was in den Arsch | Sedotta
Seducida y Abandonada | Обольщенные и брошенные

[url=...1287695] [/url][url=...643990] [/url]
Год производства: 2003 г.
Страна: Italy | Италия
Жанр: Feature
Продолжительность: 01:43:37
Язык: Итальянский | Italian

Режиссер: Pepe Catman
Студия: Interseleccion S.L. (Eurocore)

В ролях:
Actresses
Charlotte [Anal Facial]
[url=...1787143]Cynthia Fox (as Cynthya)[/url] [Anal Facial]
[url=...1513161]Jessica May[/url] [Facial]
[url=...1816351]Julia Crow[/url] [Facial]
[url=...1556083]Julie Silver[/url] [Facial Bald]
[url=...643990]Karma[/url]
[url=...1287695]Laura Angel[/url] [Anal]
[url=...1024097]Laura Lion[/url] [Anal]
[url=...1390113]Rita Faltoyano[/url] [Anal Facial]
NonSex Performers
Nicol

Actors
Max Cortes
Michael V.
Nacho Vidal
Ramon Nomar
Toni Ribas (as Tony Ribas)
NonSex Performers
Federico

Описание: Автор, помогающий старику в написании мемуаров. В этом рассказе о разожженной любви и ужасных фантазиях, он возвращает его потерянную любовь к жизни.
Более длинная версия (на 18 минут) ранее выложенного фильма!
Scene Breakdowns
:
Scene 1. [url=...1787143]Cynthia Fox[/url], Max Cortes
Scene 2. Charlotte, Max Cortes
Scene 3. [url=...1816351]Julia Crow[/url], [url=...1556083]Julie Silver[/url], Michael V.
Scene 4. [url=...1390113]Rita Faltoyano[/url], Ramon Nomar
Scene 5. [url=...1287695]Laura Angel[/url], Max Cortes
Scene 6. [url=...1513161]Jessica May[/url], [url=...643990]Karma[/url], Nacho Vidal
Scene 7. [url=...1024097]Laura Lion[/url], Toni Ribas
Laura Angel - настоящее имя Lenka Gorgesova, хотя как то раз я слыхал она сама себя назвала Тина, и тут я сука всё понял, Laura Angel в переводе с грузинского будет - Тина Канделаки. Так воооот кто в порнухе ведёт передачу "Самый умный член", а в передаче на СТС трещит не затыкаясь как швейная машинка "ZINGER", воооот почему так рот и язык разработаны.
Nacho Vidal - настоящее имя Ignacio Jordà González. Признаюсь честно я когда увидел это имя, я аж охерел от счастья, ведь этож сам Хосе Игнасиоооо. Как, вам ничего не говорит это Имя Отчество ??? Этож сын швеи Марии Лопес из сериала "Просто Мария" который шёл в прошлом веке (я был большим фанатом таких вот сериалов, у меня даж постер есть и автографы), её там учитель трудов Виктор шпиндихулил на сеновале за пару метров ситца для показа трусов от "Валечки Юдашкиной". Так вот чем оказывается сейчас промышляет Хосе, пока Мария на машинке стрОчит - дрочит.
General
Format : AVI
Format/Info : Audio Video Interleave
File size : 893 MiB
Duration : 1h 43mn
Overall bit rate : 1 205 Kbps
Writing application : VirtualDubMod 1.5.4.1 (build 2178/release)
Writing library : VirtualDubMod build 2178/release
Video
Format : MPEG-4 Visual
Format profile : Streaming Video@L1
Format settings, BVOP : Yes
Format settings, QPel : No
Format settings, GMC : No warppoints
Format settings, Matrix : Custom
Codec ID : XVID
Codec ID/Hint : XviD
Duration : 1h 43mn
Bit rate : 1 070 Kbps
Width : 720 pixels
Height : 544 pixels
Display aspect ratio : 4/3
Frame rate : 25.000 fps
Resolution : 24 bits
Colorimetry : 4:2:0
Scan type : Progressive
Bits/(Pixel*Frame) : 0.109
Stream size : 793 MiB (89%)
Writing library : XviD 0039 build=2005.09.25 (UTC 2005-09-25)
Audio
Format : MPEG Audio
Format version : Version 1
Format profile : Layer 3
Codec ID : 55
Codec ID/Hint : MP3
Duration : 1h 43mn
Bit rate mode : Constant
Bit rate : 128 Kbps
Channel(s) : 2 channels
Sampling rate : 48.0 KHz
Resolution : 16 bits
Stream size : 94.9 MiB (11%)
Alignment : Aligned on interleaves
Interleave, duration : 80 ms (2.00 video frames)
Interleave, preload duration : 504 ms
Writing library : LAME3.96r
Encoding settings : -m j -V 4 -q 2 -lowpass 17.5 -b 128
Качество видео: TVRip
Формат видео: AVI
Видео: MPEG4, XviD, 720x544 (4:3), 25.000 fps, 1 070 Kbps (0.109 bit/pixel)
Аудио: MP3, 48.0 KHz, 2 ch, 128 Kbps, CBR
[url=...981047]Seduced and Abandoned (691 MB)[/url]
Трекер:  [ 14-Фев-2015 11:00 ]

Размер .torrent файла 18 KB


Размер: 894 MB
Хэш (hash) релиза: bea734288470d9467775b6c71dd53514d86cac84
Подписка на обновления:

Еще никто не оставлял запись к записи скачать торрент Seduced and Abandoned Heute gibt's was in den Arsch . Будь первым!

!Обратная связь
//main.js show_panel