Статистика раздачи
Размер:  1.66 GB   |    Зарегистрирован:  2 года 4 месяца   |    .torrent скачан:  74 раза   |   

Пиры будут получены при скачивании

 

Скачать порно Stalked / Преследователь через торрент бесплатно :: UnionPron.org

 
 
Автор Сообщение

Sakura

avatar Sakura


Stalked / Преследователь Год производства: 2015 г.
Страна: USA
Жанр: Feature, Vignettes, Incest, Family Roleplay, Older Man, Teens, Voyeurism
Продолжительность: 1 hrs. 53 mins.
Режиссер: Levi Cash, Steven Escolar
Студия: Manipulative Media

В ролях: Rachael Madori, Sydney Cole, Lilli Dixon, Marsha May, Tony DeSergio, Tony D., Michael Masters

Описание: These young girls may have recently become adults, but they still need their Mommy's approval! When their step-fathers catch them in the act of fucking their boyfriends or appearing nude on webcam, they'll do anything to ensure he'll keep it between the two them! It seems though, that the cost is high; in order to keep Step-Daddy's mouth shut, these bad little sluts are going to have to open THEIRS' wide!

Разбит на эпизоды: Да
Качество видео: DVDRip
Формат видео: MP4
Видео: Video: MPEG4 Video (H264) 852x480 (249:140) 23.00fps 2044kbps [Video]
Аудио: Audio: AAC 44100Hz stereo 61kbps [Audio]
Format : MPEG-4
Format profile : Base Media
Codec ID : isom
File size : 386 MiB
Duration : 1- 25mn 33s . 2- 34mn 48s. 3- 29mn 48s. 4- 22mn 39s.
Overall bit rate : 2 111 Kbps
Encoded date : UTC 2015-01-27 00:54:46
Tagged date : UTC 2015-01-27 00:54:46

Video
ID : 2
Format : AVC
Format/Info : Advanced Video Codec
Format profile : Baseline@L3.0
Format settings, CABAC : No
Format settings, ReFrames : 2 frames
Codec ID : avc1
Codec ID/Info : Advanced Video Coding
Duration : 1-25mn 33s 2- 34mn 48s. 3- 29mn 48s. 4- 22mn 39s.
Bit rate mode : Variable
Bit rate : 2 045 Kbps
Width : 852 pixels
Height : 480 pixels
Display aspect ratio : 16:9
Original display aspect ratio : 16:9
Frame rate mode : Variable
Frame rate : 23.017 fps
Minimum frame rate : 11.905 fps
Maximum frame rate : 24.390 fps
Standard : NTSC
Color space : YUV
Chroma subsampling : 4:2:0
Bit depth : 8 bits
Scan type : Progressive
Bits/(Pixel*Frame) : 0.217
Stream size : 374 MiB (97%)
Title : Video
Encoded date : UTC 2015-01-27 00:54:46
Tagged date : UTC 2015-01-27 00:54:46

Audio
ID : 1
Format : AAC
Format/Info : Advanced Audio Codec
Format version : Version 4
Format profile : LC
Format settings, SBR : No
Codec ID : 40
Duration : 1- 25mn 33s. 2- 34mn 48s. 3- 29mn 48s. 4- 22mn 39s.
Bit rate mode : Variable
Bit rate : 61.7 Kbps
Channel(s) : 2 channels
Channel positions : Front: L R
Sampling rate : 44.1 KHz
Stream size : 11.3 MiB (3%)
Title : Audio
Encoded date : UTC 2015-01-27 00:54:46
Tagged date : UTC 2015-01-27 00:54:46
Трекер:  [ 13-Фев-2015 21:30 ]

Размер .torrent файла 17 KB


Размер: 1.66 GB
Хэш (hash) релиза: 6199157833d72d4eb0e877f730a31e1c41526870
Подписка на обновления:

Торренты, похожие на Stalked Преследователь скачать торрент

Форум Название Автор Размер S L Добавлен
Фильмы с сюжетом / Feature & Vignettes ·· Stalked / Преследователь (Levi Cash / Steven Escolar, Manipulative Media) [2015 г., Feature, Vignettes, Incest, Family Roleplay, Hardcore, All Sex, DVDRip, 400p] Sakura 1000646638954 MB 0 0 1426887022

01:30

21-Мар-15

Еще никто не оставлял запись к записи скачать торрент Stalked Преследователь . Будь первым!

!Обратная связь
//main.js show_panel