Статистика раздачи
Размер:  2 GB   |    Зарегистрирован:  2 года   |    .torrent скачан:  63 раза   |   

Пиры будут получены при скачивании

 

Скачать порно Tayu Tayu / Таю Таю через торрент бесплатно :: UnionPron.org

 
 
Автор Сообщение

Sakura

avatar Sakura


[url=...1819792] [/url]
Tayu Tayu / たゆたゆ / Таю Таю

Год производства: 2013 г.
Жанр: Big tits, Oral sex, Titsjob, Comedy, Virgin, Group sex
Серии: ep. 1-4 of 4
Продолжительность: 4х~22 min
Цензура: Есть

Озвучка: Японская (Оригинальная)

Режиссер: Kondou Takashi
Автор оригинала: Comic House, Yamatogawa
Студия: Queen Bee

Описание RUS: Главный герой истории, Рейджи Токава встал перед непростым выбором. Улететь вместе с родителями за границу, или вернуться в семейные пенаты, в которых он не был вот уже 8 лет. Решив приобщиться к самостоятельности, молодой человек возвращается к запыленным истокам, и начинает наводить в пустующем доме нечто наподобие порядка. Дабы смыть с себя грязь, Рей выволакивает ванну на свежий воздух и… натыкается на двух очаровательных девушек, предлагающих ему свою помощь. Шихо и Мидоре Амане, сестры-погодки и соседки главного героя, в детстве были очень дружны, и молодой человек с удовольствием отметил, что подруги весьма похорошели в сексуальном плане. А когда ему напомнили, что Мидори и Рей «обручены» (пускай это обручение прозвучало клятвой в устах восьмилетних детей), юноша понял, что жизнь в деревне имеет много положительных черт…©hentaimag.ru

Описание ENG: The protagonist of the story, Reiji Tokava got a difficult choice. Fly with their parents abroad, or return to the family hearth, in which he was not here for 8 years. Deciding to join the independence, the young man returns to the dusty origins and begins to direct an empty house in something like order. In order to wash off the dirt drags Rey bath fresh air... and stumbles upon two charming girls, offering his help. Shiho and Midori Aman, sisters and neighbors pogodki protagonist in childhood were very friendly, and the young man was pleased to note that the very prettier girlfriend sexually. And when he was reminded that Midori and Ray "engaged" (even if it sounded betrothal oath in the mouths of children eight years), the young man realized that life in the village has many positive features.

Информационные ссылки: AniDB - MAL - World Art - ХентайМаг

Качество видео: 4x DVD5
Формат видео: DVD Video
Видео кодек: MPEG2
Аудио кодек: AC3
Видео: 720х480, (16:9), 29,970 кадров/сек, ~ 3500 Кбит/сек, NTSC
Аудио: JAP, AC-3, 2 канала, 224 Кбит/сек, 48,0 КГц
Общее
Полное имя : J:\VIDEO_TS\VTS_01_1.VOB
Формат : MPEG-PS
Размер файла : 635 Мбайт
Продолжительность : 9 с. 710 мс.
Режим общего битрейта : Переменный
Общий поток : 548 Мбит/сек

Видео
Идентификатор : 224 (0xE0)
Формат : MPEG Video
Версия формата : Version 2
Профиль формата : Main@Main
Параметр BVOP формата : Да
Параметр матрицы формата : По умолчанию
Параметр GOP формата : Variable
Продолжительность : 9 с. 710 мс.
Вид битрейта : Переменный
Битрейт : 537 Мбит/сек
Максимальный битрейт : 8000 Кбит/сек
Ширина : 720 пикселей
Высота : 480 пикселей
Соотношение сторон : 16:9
Частота кадров : 29,970 кадров/сек
Стандарт вещания : NTSC
Цветовое пространство : YUV
Субдискретизация насыщенности : 4:2:0
Битовая глубина : 8 бит
Тип развёртки : Прогрессивная
Метод сжатия : С потерями
Бит/(Пиксели*Кадры) : 51.867
Размер потока : 622 Мбайт (98%)

Аудио
Идентификатор : 189 (0xBD)-128 (0x80)
Формат : AC-3
Формат/Информация : Audio Coding 3
Расширение режима : CM (complete main)
Параметр Endianness формата : Big
Режим смешивания : DVD-Video
Продолжительность : 9 с. 696 мс.
Вид битрейта : Постоянный
Битрейт : 224 Кбит/сек
Каналы : 2 канала
Расположение каналов : Front: L R
Частота : 48,0 КГц
Битовая глубина : 16 бит
Метод сжатия : С потерями
Размер потока : 265 Кбайт (0%)

Меню
Время раздачи: с 09 до 00.00 (Киев), отдача: 100 кб/с (анальный инет)
1 Большая просьба, помогайте другим скачать (тогда релизов будет больше)
2 Если нет сидов - пишите в лс
3 Если сдохли постеры и скриншоты - пишите в лс
Трекер:  [ 07-Фев-2015 18:30 ]

Размер .torrent файла 13 KB


Размер: 2 GB
Хэш (hash) релиза: 512a93fcb518597967e73376cdaa757a47951ce0
Подписка на обновления:

Торренты, похожие на Tayu Tayu Таю Таю скачать торрент

Форум Название Автор Размер S L Добавлен
Хентай в высоком качестве (DVD и HD) / Hentai DVD & HD ·· Tayu Tayu / Таю Таю (Kondou Takashi, Queen Bee) (ep. 1-2 of 4) [cen] [2013 г., Big tits, Oral sex, Titsjob, Comedy, Virgin, 2x DVD5] [jap] Sakura 13357011011.24 GB 0 0 1406205193

16:33

24-Июл-14

Еще никто не оставлял запись к записи скачать торрент Tayu Tayu Таю Таю . Будь первым!

!Обратная связь
//main.js show_panel