Статистика раздачи
Размер:  725 MB   |    Зарегистрирован:  2 года 10 месяцев   |    .torrent скачан:  63 раза   |   

Пиры будут получены при скачивании

 

Скачать порно Ikenai Koto The Animation / Непристойности через торрент бесплатно :: UnionPron.org

 
 
Автор Сообщение

Sakura

avatar Sakura


Ikenai Koto The Animation / イケナイコト THE ANIMATION / Непристойности

Год производства: 2015 г.
Жанр: Anal sex, Big tits, Group sex, Oral sex, Titsjob, X-Ray, Rape
Серии: ep. 1
Продолжительность: 1х~15 min + 5 min трейлеры
Цензура: Есть

Озвучка: Японская (Оригинальная)

Режиссер: Kurotsuguchi Narue
Автор оригинала: Mizuhara Yuu
Студия: MS Pictures, BOOTLEG

Описание RUS: Нашу героиню, милую школьницу Цурекому путем шантажа при помощи компрометирующих фото порабощают в сексуальное рабство.

Описание ENG: Our heroine, cute schoolgirl Zurek blackmail using incriminating photos enslaved into sexual slavery.

Информационные ссылки: AniDB - MAL

Качество видео: DVD5
Формат видео: DVD Video
Видео кодек: MPEG2
Аудио кодек: AC3
Видео: 720х480, (16:9), 23,976 кадров/сек, ~ 4200 Кбит/сек, NTSC
Аудио: JAP, AC-3, 2 канала, 384 Кбит/сек, 48,0 КГц
Общее
Полное имя : H:\VIDEO_TS\VTS_01_1.VOB
Формат : MPEG-PS
Размер файла : 714 Мбайт
Продолжительность : 3 м. 31 с.
Режим общего битрейта : Переменный
Общий поток : 28,3 Мбит/сек

Видео
Идентификатор : 224 (0xE0)
Формат : MPEG Video
Версия формата : Version 2
Профиль формата : Main@Main
Параметр BVOP формата : Да
Параметр матрицы формата : Выборочная
Параметр GOP формата : Variable
Продолжительность : 3 м. 31 с.
Вид битрейта : Переменный
Битрейт : 27,4 Мбит/сек
Максимальный битрейт : 9800 Кбит/сек
Ширина : 720 пикселей
Высота : 480 пикселей
Соотношение сторон : 16:9
Частота кадров : 23,976 кадра/сек
Стандарт вещания : NTSC
Цветовое пространство : YUV
Субдискретизация насыщенности : 4:2:0
Битовая глубина : 8 бит
Тип развёртки : Прогрессивная
Порядок развёртки : 2:3 Pulldown
Метод сжатия : С потерями
Бит/(Пиксели*Кадры) : 3.303
Временной код первого кадра : 00:59:59:15
Оригинал временного кода : Group of pictures header
Размер потока : 690 Мбайт (97%)

Аудио
Идентификатор : 189 (0xBD)-128 (0x80)
Формат : AC-3
Формат/Информация : Audio Coding 3
Расширение режима : CM (complete main)
Параметр Endianness формата : Big
Режим смешивания : DVD-Video
Продолжительность : 3 м. 31 с.
Вид битрейта : Постоянный
Битрейт : 384 Кбит/сек
Каналы : 2 канала
Расположение каналов : Front: L R
Частота : 48,0 КГц
Битовая глубина : 16 бит
Метод сжатия : С потерями
Размер потока : 9,69 Мбайт (1%)

Меню
Время раздачи: с 09 до 00.00 (Киев), отдача: 100 кб/с (анальный инет)
1 Большая просьба, помогайте другим скачать (тогда релизов будет больше)
2 Если нет сидов - пишите в лс
3 Если сдохли постеры и скриншоты - пишите в лс
Трекер:  [ 07-Фев-2015 13:00 ]

Размер .torrent файла 14 KB


Размер: 725 MB
Хэш (hash) релиза: b38ded144209b87ccf9b228dbe32cadf1b741ed4
Подписка на обновления:

Еще никто не оставлял запись к записи скачать торрент Ikenai Koto The Animation Непристойности . Будь первым!

!Обратная связь
//main.js show_panel