Статистика раздачи
Размер:  1.78 GB   |    Зарегистрирован:  2 года 6 месяцев   |    .torrent скачан:  55 раз   |   

Пиры будут получены при скачивании

 

Скачать порно Griechische Feigen / The Fruit Is Ripe / Греческая смоковница , Lisa-Film GmbH) через торрент бесплатно :: UnionPron.org

 
 
Автор Сообщение

Sakura

avatar Sakura


Griechische Feigen / Греческая смоковница
Год производства: 1976 г.
Страна: Германия (ФРГ)
Жанр: Comedy, Erotic
Продолжительность: 01:35:01
Язык: Русский

Режиссер: Sigi Rothemund (as Siggi Götz)
Студия: Lisa-Film GmbH

В ролях: Бетти Вергес (Betty Verges), Клаус Рихт (Claus Richt), Оливия Паскаль (Olivia Pascal), Саби Дорр (Sabi Dorr), Эрик Ведекинд (Eric Wedekind), Коринн Бродбек (Corinne Brodbeck)

Описание: Красивая студентка отправляется в Грецию на каникулы. Она страстно мечтает о новых впечатлениях и любовных приключениях, переживает неведомые ранее ощущения и, будучи девушкой "сексуально - свободной", не отказывает себе в самых разнообразных экспериментах...

Доп. информация: Анаморфный рип. Убрал "лесенку" с контуров. В раздаче присутствует сэмпл.

Качество видео: DVDRip
Формат видео: MKV
Видео: MPEG-4, x264, 720х520 (720х540), 25.000, 2361 kb/s, 0.252
Аудио:
русский - AC-3, 48,0 КГц, 6 каналов, 384 Кбит/сек - профессиональный (многоголосный, закадровый).
Полное имя : K:\ARC\Греческая смоковница (The Fruit Is Ripe. 1976)\Греческая смоковница (The Fruit Is Ripe. 1976).mkv
Формат : Matroska
Версия формата : Version 4 / Version 2
Размер файла : 1,77 Гбайт
Продолжительность : 1 ч. 30 м.
Общий поток : 2808 Кбит/сек
Дата кодирования : UTC 2015-02-03 20:21:51
Программа кодирования : mkvmerge v7.5.0 ('Glass Culture') 32bit built on Jan 4 2015 16:37:25
Библиотека кодирования : libebml v1.3.1 + libmatroska v1.4.2

Видео
Идентификатор : 1
Формат : AVC
Формат/Информация : Advanced Video Codec
Профиль формата : High@L3.1
Параметр CABAC формата : Да
Параметр ReFrames формата : 10 кадров
Идентификатор кодека : V_MPEG4/ISO/AVC
Продолжительность : 1 ч. 30 м.
Битрейт : 2369 Кбит/сек
Ширина : 720 пикселей
Высота : 520 пикселей
Соотношение сторон : 4:3
Режим частоты кадров : Постоянный
Частота кадров : 25,000 кадров/сек
Цветовое пространство : YUV
Субдискретизация насыщенности : 4:2:0
Битовая глубина : 8 бит
Тип развёртки : Прогрессивная
Бит/(Пиксели*Кадры) : 0.253
Размер потока : 1,49 Гбайт (84%)
Библиотека кодирования : x264 core 144 r2525 40bb568
Настройки программы : cabac=1 / ref=10 / deblock=1:0:0 / analyse=0x3:0x113 / me=umh / subme=9 / psy=1 / psy_rd=1.00:0.20 / mixed_ref=1 / me_range=24 / chroma_me=1 / trellis=2 / 8x8dct=1 / cqm=0 / deadzone=21,11 / fast_pskip=1 / chroma_qp_offset=-3 / threads=6 / lookahead_threads=1 / sliced_threads=0 / nr=0 / decimate=1 / interlaced=0 / bluray_compat=0 / constrained_intra=0 / bframes=8 / b_pyramid=2 / b_adapt=2 / b_bias=0 / direct=1 / weightb=1 / open_gop=0 / weightp=2 / keyint=250 / keyint_min=25 / scenecut=40 / intra_refresh=0 / rc=crf / mbtree=0 / crf=18.0 / qcomp=0.75 / qpmin=0 / qpmax=69 / qpstep=4 / ip_ratio=1.40 / pb_ratio=1.30 / aq=1:1.00
Язык : English
Default : Да
Forced : Нет

Аудио
Идентификатор : 2
Формат : AC-3
Формат/Информация : Audio Coding 3
Расширение режима : CM (complete main)
Параметр Endianness формата : Big
Идентификатор кодека : A_AC3
Продолжительность : 1 ч. 30 м.
Вид битрейта : Постоянный
Битрейт : 384 Кбит/сек
Каналы : 6 каналов
Расположение каналов : Front: L C R, Side: L R, LFE
Частота : 48,0 КГц
Битовая глубина : 16 бит
Метод сжатия : С потерями
Размер потока : 248 Мбайт (14%)
Заголовок : RUS 5.1
Язык : Russian
Default : Да
Forced : Нет
Трекер:  [ 04-Фев-2015 18:00 ]

Размер .torrent файла 18 KB


Размер: 1.78 GB
Хэш (hash) релиза: 0b197508738e5939951958c35ddaf20a57474f1e
Подписка на обновления:

Еще никто не оставлял запись к записи скачать торрент Griechische Feigen The Fruit Is Ripe . Будь первым!

!Обратная связь
//main.js show_panel