Статистика раздачи
Размер:  562 MB   |    Зарегистрирован:  2 года 1 месяц   |    .torrent скачан:  55 раз   |   

Пиры будут получены при скачивании

 

Скачать порно Tennen Koi-iro Alcohol / Эта Пьянящая Любовь / Естественный цвет любви алкоголя через торрент бесплатно :: UnionPron.org

 
 
Автор Сообщение

Sakura

avatar Sakura


Tennen Koi-iro Alcohol / 天然恋色アルコール / Эта Пьянящая Любовь / Естественный цвет любви алкоголя

Год производства: 2014 г.
Жанр: Big tits, Oral sex, Titsjob, X-Ray, Romance, Students
Серии: ep. 1 of 2
Продолжительность: 1х~20 min
Цензура: Есть

Озвучка: Японская (Оригинальная)

Режиссер: Watase Toshihiro
Автор оригинала: Arima Jin
Студия: White Bear, Breakbottle

Описание RUS: Хентай о девушке Акира и её парне Наото. Акира и Наото любят друг друга где угодно и когда угодно. Будь то в ванной, пока Наото болеет или на работе у Акиро.

Описание ENG: Hentai girl about Akira and her boyfriend Naoto. Akira and Naoto love each other wherever and whenever you want. Whether it's in the bathroom, while Naoto sick or work in Akira.

Информационные ссылки: AniDB - MAL - World Art - ХентайМаг

Качество видео: DVD5
Формат видео: DVD Video
Видео кодек: MPEG2
Аудио кодек: AC3
Видео: 720х480, (16:9), 29,970 кадров/сек, ~ 3344 Кбит/сек, NTSC
Аудио: JAP, AC-3, 2 канала, 224 Кбит/сек, 48,0 КГц
Общее
Полное имя : H:\VIDEO_TS\VTS_01_1.VOB
Формат : MPEG-PS
Размер файла : 560 Мбайт
Продолжительность : 21 м.
Общий поток : 3641 Кбит/сек

Видео
Идентификатор : 224 (0xE0)
Формат : MPEG Video
Версия формата : Version 2
Профиль формата : Main@Main
Параметр BVOP формата : Да
Параметр матрицы формата : По умолчанию
Параметр GOP формата : Variable
Продолжительность : 21 м.
Битрейт : 3344 Кбит/сек
Ширина : 720 пикселей
Высота : 480 пикселей
Соотношение сторон : 16:9
Частота кадров : 29,970 кадров/сек
Стандарт вещания : NTSC
Цветовое пространство : YUV
Субдискретизация насыщенности : 4:2:0
Битовая глубина : 8 бит
Метод сжатия : С потерями
Бит/(Пиксели*Кадры) : 0.323
Размер потока : 514 Мбайт (92%)

Аудио
Идентификатор : 189 (0xBD)-128 (0x80)
Формат : AC-3
Формат/Информация : Audio Coding 3
Расширение режима : CM (complete main)
Параметр Endianness формата : Big
Режим смешивания : DVD-Video
Продолжительность : 21 м.
Вид битрейта : Постоянный
Битрейт : 224 Кбит/сек
Каналы : 2 канала
Расположение каналов : Front: L R
Частота : 48,0 КГц
Битовая глубина : 16 бит
Метод сжатия : С потерями
Размер потока : 34,5 Мбайт (6%)

Меню
Время раздачи: с 09 до 00.00 (Киев), отдача: 100 кб/с (анальный инет)
1 Большая просьба, помогайте другим скачать (тогда релизов будет больше)
2 Если нет сидов - пишите в лс
3 Если сдохли постеры и скриншоты - пишите в лс
Трекер:  [ 31-Янв-2015 14:30 ]

Размер .torrent файла 11 KB


Размер: 562 MB
Хэш (hash) релиза: 73f541432a786ce4b1e1040bf888a616fde4678b
Подписка на обновления:

Еще никто не оставлял запись к записи скачать торрент Tennen Koi-iro Alcohol Эта Пьянящая Любовь . Будь первым!

!Обратная связь
//main.js show_panel