Статистика раздачи
Размер:  527 MB   |    Зарегистрирован:  2 года   |    .torrent скачан:  68 раз   |   

Пиры будут получены при скачивании

 

Скачать порно Yobai Suru Shichinin no Harame / Семь женщин, прокравшихся в ночи с целью забеременеть / Пробираясь украдкой к 7 беременным через торрент бесплатно :: UnionPron.org

 
 
Автор Сообщение

Sakura

avatar Sakura


Yobai Suru Shichinin no Harame / 夜這いする七人の孕女 / Семь женщин, прокравшихся в ночи с целью забеременеть / Пробираясь украдкой к 7 беременным

Год производства: 2014 г.
Жанр: Big tits, Oral sex, Straight
Серии: ep. 1-2 of 2
Продолжительность: 1х~15 min + 5 min трейлеры
Цензура: Есть

Озвучка: Японская (Оригинальная)

Режиссер: Kotobuki Ranko
Автор оригинала: Guilty
Студия: Studio 1st, Mary Jane

Описание RUS: Экранизация одноименной эроге новеллы студии Guilty. Масая Куги с самого рождения воспитывала мать. Но она тоже покинула сей мир в то время когда главный герой был уже студентом. Тем не менее он смог доучиться и получить медицинскую лицензию. Масая решил поехать на маленький остров в небольшую деревушку, где у его отца остался домик. Устроившись работать врачом, он оказывается в центре внимания всех девушек этой деревни... ©hentaimag.ru

Описание ENG: Screen adaptation of the novel eroge studio Guilty. Masaya Kuga from birth raised by his mother. But she also left this world at a time when the main character was already a student. Nevertheless, he was able to finish my studies and get a medical license. Masaya decided to go to a small island in a small village, where his father was a house. Sitting work as a doctor, he finds himself the center of attention all the girls of the village.

Информационные ссылки: AniDB - MAL - World Art - ХентайМаг
Доп. информация: На основе хентай-игры: Yobai Suru Shichinin no Harame (2013)

Качество видео: DVD5
Формат видео: DVD Video
Видео кодек: MPEG2
Аудио кодек: AC3
Видео: 720х480, (16:9), 29,970 кадров/сек, ~ 3200 Кбит/сек, NTSC
Аудио: JAP, AC-3, 2 канала, 256 Кбит/сек, 48,0 КГц
Общее
Полное имя : H:\VIDEO_TS\VTS_01_1.VOB
Формат : MPEG-PS
Размер файла : 524 Мбайт
Продолжительность : 18 с.
Общий поток : 233 Мбит/сек

Видео
Идентификатор : 224 (0xE0)
Формат : MPEG Video
Версия формата : Version 2
Профиль формата : Main@Main
Параметр BVOP формата : Нет
Параметр матрицы формата : Выборочная
Параметр GOP формата : Variable
Продолжительность : 33 мс.
Битрейт : 228 Мбит/сек
Максимальный битрейт : 8000 Кбит/сек
Ширина : 720 пикселей
Высота : 480 пикселей
Соотношение сторон : 16:9
Частота кадров : 29,970 кадров/сек
Стандарт вещания : NTSC
Цветовое пространство : YUV
Субдискретизация насыщенности : 4:2:0
Битовая глубина : 8 бит
Тип развёртки : Прогрессивная
Порядок развёртки : Верхнее поле первое
Метод сжатия : С потерями
Бит/(Пиксели*Кадры) : 21.995
Размер потока : 928 Кбайт (0%)

Аудио
Идентификатор : 189 (0xBD)-128 (0x80)
Формат : AC-3
Формат/Информация : Audio Coding 3
Расширение режима : CM (complete main)
Параметр Endianness формата : Big
Режим смешивания : DVD-Video
Продолжительность : 18 с.
Вид битрейта : Постоянный
Битрейт : 256 Кбит/сек
Каналы : 2 канала
Расположение каналов : Front: L R
Частота : 48,0 КГц
Битовая глубина : 16 бит
Метод сжатия : С потерями
Размер потока : 590 Кбайт (0%)

Меню
Время раздачи: с 09 до 00.00 (Киев), отдача: 100 кб/с (анальный инет)
1 Большая просьба, помогайте другим скачать (тогда релизов будет больше)
2 Если нет сидов - пишите в лс
3 Если сдохли постеры и скриншоты - пишите в лс
Трекер:  [ 30-Янв-2015 00:00 ]

Размер .torrent файла 11 KB


Размер: 527 MB
Хэш (hash) релиза: 42ccb90ebe77c695db9ab1b37e74644238760c2a
Подписка на обновления:

Еще никто не оставлял запись к записи скачать торрент Yobai Suru Shichinin no Harame Семь женщин, прокравшихся в ночи с целью забеременеть . Будь первым!

!Обратная связь
//main.js show_panel