Статистика раздачи
Размер:  2 GB   |    Зарегистрирован:  2 года 9 месяцев   |    .torrent скачан:  47 раз   |   

Пиры будут получены при скачивании

 

Скачать порно Shishunki Shoujo: Kari Kari / Зрелая девушка через торрент бесплатно :: UnionPron.org

 
 
Автор Сообщение

Sakura

avatar Sakura


Shishunki Shoujo: Kari Kari / 思春期少女 「かりかり」 / Зрелая девушка

Год производства: 2008 г.
Жанр: Group sex, Oral sex, School, Rape, Students, Virgin
Серии: ep. 1-2 of 2
Продолжительность: 2х~28 min
Цензура: Есть

Озвучка: Японская (Оригинальная)

Режиссер: Yokoyama Hiromi
Автор оригинала: Shirataki Shun
Студия: Suzuki Mirano

Описание RUS: Коизуми любит Рину, а Рина, хоть и любит Коизуми, но... таки да, бьет, но не дает (где-то это уже обыгрывалось). А тут наш герой без штанов умудряется спасти (случайно) лучшую подругу своей возлюбленной и Куми (она самая лучшая подруга), которой Коизуми тоже нравится, благодарит спасителя известным способом. А потом обе подруги (поочередно) оказываются в логове (хм, художественное преувеличение) насильников, где их... ну это... Успеет ли герой спасти девушек? ©vattok

Описание ENG: A pair of high school girls, who think they can handle trouble, try to keep the punks in line at their school and discover they aren't as tough as they thought.

Информационные ссылки: AniDB - MAL - World Art - ХентайМаг
Доп. информация: На основе хентай-манги.

Качество видео: 2х DVD5
Формат видео: DVD Video
Видео кодек: MPEG2
Аудио кодек: AC3
Видео: 720х480, (4:3), 29,970 кадров/сек, ~ 8500 Кбит/сек, NTSC
Аудио: JAP, AC-3, 2 канала, 192 Кбит/сек, 48,0 КГц
Общее
Полное имя : H:\VIDEO_TS\VTS_01_1.VOB
Формат : MPEG-PS
Размер файла : 1024 Мбайт
Продолжительность : 14 м.
Режим общего битрейта : Переменный
Общий поток : 10,1 Мбит/сек

Видео
Идентификатор : 224 (0xE0)
Формат : MPEG Video
Версия формата : Version 2
Профиль формата : Main@Main
Параметр BVOP формата : Да
Параметр матрицы формата : Выборочная
Параметр GOP формата : Variable
Format_Settings_PictureStructure : Frame
Продолжительность : 14 м.
Вид битрейта : Переменный
Битрейт : 9800 Кбит/сек
Ширина : 720 пикселей
Высота : 480 пикселей
Соотношение сторон : 4:3
Частота кадров : 29,970 кадров/сек
Стандарт вещания : NTSC
Цветовое пространство : YUV
Субдискретизация насыщенности : 4:2:0
Битовая глубина : 8 бит
Тип развёртки : Чересстрочная
Порядок развёртки : Верхнее поле первое
Метод сжатия : С потерями
Бит/(Пиксели*Кадры) : 0.946
Временной код первого кадра : 01:00:00:00
Оригинал временного кода : Group of pictures header
Размер потока : 984 Мбайт (96%)

Аудио
Идентификатор : 189 (0xBD)-128 (0x80)
Формат : AC-3
Формат/Информация : Audio Coding 3
Расширение режима : CM (complete main)
Параметр Endianness формата : Big
Режим смешивания : DVD-Video
Продолжительность : 14 м.
Вид битрейта : Постоянный
Битрейт : 192 Кбит/сек
Каналы : 2 канала
Расположение каналов : Front: L R
Частота : 48,0 КГц
Битовая глубина : 16 бит
Метод сжатия : С потерями
Размер потока : 19,5 Мбайт (2%)

Меню
Время раздачи: с 09 до 00.00 (Киев), отдача: 100 кб/с (анальный инет)
1 Большая просьба, помогайте другим скачать (тогда релизов будет больше)
2 Если нет сидов - пишите в лс
3 Если сдохли постеры и скриншоты - пишите в лс
Трекер:  [ 25-Янв-2015 14:00 ]

Размер .torrent файла 19 KB


Размер: 2 GB
Хэш (hash) релиза: 6862da1ba6728a14abd057a87bd81d8813e44b74
Подписка на обновления:

Торренты, похожие на Shishunki Shoujo: Kari Kari Зрелая девушка скачать торрент

Форум Название Автор Размер S L Добавлен
Хентай: основной подраздел / Hentai: main subsection ·· Shishunki Shoujo: Kari Kari / Зрелая девушка (Yokoyama Hiromi, Suzuki Mirano) (ep. 1-2 of 2) [cen] [2008 г. Romance, School, Rape, Straight, Virgin, Gangbang, Oral sex,, DVDRip] [jap / eng / rus] Sakura 501264632478 MB 0 0 1411756444

22:34

26-Сен-14

Еще никто не оставлял запись к записи скачать торрент Shishunki Shoujo: Kari Kari Зрелая девушка . Будь первым!

!Обратная связь
//main.js show_panel