Статистика раздачи
Размер:  1.68 GB   |    Зарегистрирован:  2 года   |    .torrent скачан:  66 раз   |   

Пиры будут получены при скачивании

 

Скачать порно Karriere Girls 2 / Карьеристки 2 ) через торрент бесплатно :: UnionPron.org

 
 
Автор Сообщение

Sakura

avatar Sakura


Karriere Girls 2 | Карьеристки 2
Год производства: 1996 г.
Страна: Германия | Germany
Жанр: Feature
Продолжительность: 01:49:36
Язык: Немецкий

Режиссер: Hans Billian
Студия: Tabu

В ролях:
Actresses: Lolita Slater, Carmen Herzog, Kathy Kash, Monica Orsini, Susanne (Philips)
Actors: Freddy Dalton, Steve Vincent, Udo, Herr Höller (plays bank manager), Chris Hudson (plays assistant) a.o.

Описание:
The movie ends with a five minute flashback telling what has happened in part 1.

Scene 1+2 are intercut

The movie „Karriere Girls 2” (Cat.No.60560) was released by Tabu in 1996.

Scene breakdowns
Scene 1 - Kathy Kash, Monica Orsini, Freddy Dalton
Scene 2 - Carmen Herzog, Steve Vincent
Scene 3 - Lolita Slater, Carmen Herzog, Udo, guy
Scene 4 - Kathy Kash, Monica Orsini [lez]
Scene 5 - Kathy Kash, Monica Orsini, Steve Vincent + Lolita Slater, Carmen Herzog, Uwe, guy
Scene 6 - Lolita Slater, Carmen Herzog [lez]
Scene 7 - Monica Orsini, Uwe
Scene 8 – Kathy Kash, guy
Scene 9 - Carmen Herzog, Lolita Slater, Steve Vincent
Scene 10 - Kathy Kash, Monica Orsini, Susanne [lez first] until Steve Vincent joins in
Scene 11 - Carmen Herzog (with a strap-on dildo), Lolita Slater (playing Hänsel and Gretl)
Scene 12 - Kathy Kash, Monica Orsini [lez]
Scene 13 - Susanne Philips, Carmen Herzog, Steve Vincent, guy
Scene 14 - Kathy Kash, Monica Orsini [lez]
:
General
Format : MPEG-4
Format profile : Base Media / Version 2
Codec ID : mp42
File size : 1.68 GiB
Duration : 1h 49mn
Overall bit rate : 2 188 Kbps
Encoded date : UTC 2014-11-18 16:28:55
Tagged date : UTC 2014-11-18 16:49:42
Video #1
ID : 1
Format : AVC
Format/Info : Advanced Video Codec
Format profile : Main@L3.1
Format settings, CABAC : Yes
Format settings, ReFrames : 2 frames
Codec ID : avc1
Codec ID/Info : Advanced Video Coding
Duration : 1h 49mn
Bit rate mode : Variable
Bit rate : 1 992 Kbps
Maximum bit rate : 5 633 Kbps
Width : 768 pixels
Height : 576 pixels
Display aspect ratio : 4/3
Frame rate mode : Constant
Frame rate : 25.000 fps
Resolution : 24 bits
Colorimetry : 4:2:0
Scan type : Progressive
Bits/(Pixel*Frame) : 0.180
Stream size : 1.53 GiB (91%)
Encoded date : UTC 2014-11-18 16:28:55
Tagged date : UTC 2014-11-18 16:49:42
Audio #2
ID : 2
Format : AAC
Format/Info : Advanced Audio Codec
Format version : Version 4
Format profile : LC
Format settings, SBR : No
Codec ID : 40
Duration : 1h 49mn
Bit rate mode : Variable
Bit rate : 192 Kbps
Maximum bit rate : 234 Kbps
Channel(s) : 2 channels
Channel positions : L R
Sampling rate : 48.0 KHz
Resolution : 16 bits
Stream size : 151 MiB (9%)
Title : deu
Language : German
Encoded date : UTC 2014-11-18 16:28:55
Tagged date : UTC 2014-11-18 16:49:42
Качество видео: DVDRip
Формат видео: MP4
Видео: AVC, 1992 kbps, 25 fps, 768x576
Аудио: AAC LC, 48 kHz, stereo, 1 stream, 192 kbps (VBR)
[url=...1913025]Karriere Girls (1,5 Gb)[/url]
Трекер:  [ 12-Янв-2015 01:00 ]

Размер .torrent файла 17 KB


Размер: 1.68 GB
Хэш (hash) релиза: a343fd8c7db0849a539ceef45357c54b1699af87
Подписка на обновления:

Еще никто не оставлял запись к записи скачать торрент Karriere Girls 2 Карьеристки 2 . Будь первым!

!Обратная связь
//main.js show_panel