Статистика раздачи
Размер:  2 GB   |    Зарегистрирован:  2 года 2 месяца   |    .torrent скачан:  89 раз   |   

Пиры будут получены при скачивании

 

Скачать порно Mujintou Monogatari XX / Desert Island Story XX / История необитаемого острова - XX через торрент бесплатно :: UnionPron.org

 
 
Автор Сообщение

Sakura

avatar Sakura


Mujintou Monogatari XX / Desert Island Story XX / 無人島物語XX / История необитаемого острова - XX

Год производства: 1999 г.
Жанр: Anal sex, BDSM, Group sex, Oral sex, Rape, Yuri, Torture, Virgin,
Серии: ep. 1-4 of 4
Продолжительность: 4х~27 min
Цензура: Отсутствует

Озвучка №1: Японская (Оригинальная)
Озвучка №2: Английская (Профессиональная, полное дублирование)
Субтитры: Английские

Режиссер: Kanazawa Katsuma
Студия: Pink Pineapple, NuTech Digital

Описание RUS: Перед вами хентай состоящий из четырех эпизодов и рассказывает он печальную историю девушек работавших в лаборатории, в которой на днях произошел взрыв и они убежали на сам остров искать спасения. Девушки не подозревали что в лаборатории проводились исследования в области обмена эмоциями одного человека в тело другого. Теперь на них могут совершаться сексуальные посягательства и они даже не будут знать кто на самом деле замыслил это и пользуется чужим телом. Как им избежать от постоянных попыток изнасилования? И смогут ли они избежать их вообще?

Описание ENG: This time around, nine survivors end up stranded on an island. A mystery explosion happens on the Island in a laboratory. Aoi and Shiori are amongst the survivors of six girls and three men. They are all isolated and stranded with no means of communication. These girls find out that the purpose of the laboratory is to transplant one's thoughts and emotions into the body of a victim. No one has come to rescue them and the beautiful girls are attacked one by one as they struggle for survival.

Качество видео: 4x DVD5
Формат видео: DVD Video
Видео кодек: MPEG2
Аудио кодек: AC3
Видео: 720х480, (4:3), 29,970 кадров/сек, ~ 8000 Кбит/сек, NTSC
Аудио №1: JAP, AC-3, 2 канала, 192 Кбит/сек, 48,0 КГц
Аудио №2: ENG, AC-3, 2 канала, 192 Кбит/сек, 48,0 КГц
Доп. материалы: Фотогалерея
Общее
Полное имя : G:\VIDEO_TS\VTS_01_1.VOB
Формат : MPEG-PS
Размер файла : 1024 Мбайт
Продолжительность : 13 м.
Режим общего битрейта : Переменный
Общий поток : 11,0 Мбит/сек

Видео
Идентификатор : 224 (0xE0)
Формат : MPEG Video
Версия формата : Version 2
Профиль формата : Main@Main
Параметр BVOP формата : Да
Параметр матрицы формата : Выборочная
Параметр GOP формата : Variable
Продолжительность : 13 м.
Вид битрейта : Переменный
Битрейт : 10,4 Мбит/сек
Максимальный битрейт : 8000 Кбит/сек
Ширина : 720 пикселей
Высота : 480 пикселей
Соотношение сторон : 4:3
Частота кадров : 29,970 кадров/сек
Стандарт вещания : NTSC
Цветовое пространство : YUV
Субдискретизация насыщенности : 4:2:0
Битовая глубина : 8 бит
Метод сжатия : С потерями
Бит/(Пиксели*Кадры) : 1.004
Размер потока : 968 Мбайт (95%)

Аудио #1
Идентификатор : 189 (0xBD)-128 (0x80)
Формат : AC-3
Формат/Информация : Audio Coding 3
Расширение режима : CM (complete main)
Параметр Endianness формата : Big
Режим смешивания : DVD-Video
Продолжительность : 13 м.
Вид битрейта : Постоянный
Битрейт : 192 Кбит/сек
Каналы : 2 канала
Расположение каналов : Front: L R
Частота : 48,0 КГц
Битовая глубина : 16 бит
Метод сжатия : С потерями
Размер потока : 17,9 Мбайт (2%)

Аудио #2
Идентификатор : 189 (0xBD)-129 (0x81)
Формат : AC-3
Формат/Информация : Audio Coding 3
Расширение режима : CM (complete main)
Параметр Endianness формата : Big
Режим смешивания : DVD-Video
Продолжительность : 13 м.
Вид битрейта : Постоянный
Битрейт : 192 Кбит/сек
Каналы : 2 канала
Расположение каналов : Front: L R
Частота : 48,0 КГц
Битовая глубина : 16 бит
Метод сжатия : С потерями
Размер потока : 17,9 Мбайт (2%)

Текст
Идентификатор : 189 (0xBD)-32 (0x20)
Формат : RLE
Формат/Информация : Run-length encoding
Режим смешивания : DVD-Video

Меню
Время раздачи: с 09 до 00.00 (Киев), отдача: 100 кб/с (анальный инет)
1 Большая просьба, помогайте другим скачать (тогда релизов будет больше)
2 Если нет сидов - пишите в лс
3 Если сдохли постеры и скриншоты - пишите в лс
Трекер:  [ 06-Янв-2015 16:00 ]

Размер .torrent файла 23 KB


Размер: 2 GB
Хэш (hash) релиза: 008ad1d0e916a6e8bfa5c82c196dd76d138be08c
Подписка на обновления:

Еще никто не оставлял запись к записи скачать торрент Mujintou Monogatari XX Desert Island Story XX . Будь первым!

!Обратная связь
//main.js show_panel