Статистика раздачи
Размер:  2 GB   |    Зарегистрирован:  2 года 2 месяца   |    .torrent скачан:  51 раз   |   

Пиры будут получены при скачивании

 

Скачать порно Can Can Bunny Extra / Can Can Bunny Extra - Lucky 7 / Can Can Bunny Extra - Summer Fun / Deseo cumplido / Канкан Бани через торрент бесплатно :: UnionPron.org

 
 
Автор Сообщение

Sakura

avatar Sakura


きゃんきゃんバニーエクストラ | Can Can Bunny Extra | Can Can Bunny Extra - Lucky 7 | Can Can Bunny Extra - Summer Fun | Deseo cumplido | Канкан Бани


Год выпуска: 1996
Страна: Япония
Жанр: comedy, fantasy, magic, romance, straight
Продолжительность: >6 эп. по 30 мин.
Субтитры:

Английские

Цензура: Отсутствует
Режиссёр: Kanazawa Katsuma
Студия: SoftCel Pictures
Описание:
Looking at him, he ain't much. But Kenta scores with every girl he meets. Why, well, he has a love-struck goddess who's decided to help him out. After the celestial sweetie takes a shine to him, she grants him the ability to seduce seven different women to find out which one is his true love, and in the end, it is a big suprise who his actual true love is.
Информационные ссылки: AniDB || MAL || World Art || ХентайМаг
Исходник: DVD-5
Видео: MPEG2 | NTSC | 4x3 | 720x480 | 9000 Kbps
Аудио JAP: AC-3 | 48000Hz | 192 Kbps | 2ch
01. Volume 1
02. Volume 2
03. Volume 3
04. Volume 4
05. Volume 5
06. Volume 6
General
Complete name : P:\VIDEO_TS\VTS_02_1.VOB
Format : MPEG-PS
File size : 1 024 MiB
Duration : 24mn 28s
Overall bit rate mode : Variable
Overall bit rate : 5 847 Kbps

Video
ID : 224 (0xE0)
Format : MPEG Video
Format version : Version 2
Format profile : Main@Main
Format settings, BVOP : Yes
Format settings, Matrix : Custom
Format settings, GOP : M=3, N=12
Duration : 24mn 28s
Bit rate mode : Variable
Bit rate : 5 539 Kbps
Maximum bit rate : 9 000 Kbps
Width : 720 pixels
Height : 480 pixels
Display aspect ratio : 4:3
Frame rate : 29.970 fps
Standard : NTSC
Color space : YUV
Chroma subsampling : 4:2:0
Bit depth : 8 bits
Scan type : Interlaced
Scan order : Top Field First
Compression mode : Lossy
Bits/(Pixel*Frame) : 0.535
Stream size : 970 MiB (95%)

Audio
ID : 189 (0xBD)-128 (0x80)
Format : AC-3
Format/Info : Audio Coding 3
Mode extension : CM (complete main)
Muxing mode : DVD-Video
Duration : 24mn 28s
Bit rate mode : Constant
Bit rate : 192 Kbps
Channel(s) : 2 channels
Channel positions : Front: L R
Sampling rate : 48.0 KHz
Bit depth : 16 bits
Compression mode : Lossy
Delay relative to video : -66ms
Stream size : 33.6 MiB (3%)

Text
ID : 189 (0xBD)-32 (0x20)
Format : RLE
Format/Info : Run-length encoding
Muxing mode : DVD-Video
[url]...1285163[/url]

Наличие всех эпизодов.


Исходник: DVD-5
Видео: MPEG2 | NTSC | 4x3 | 720x480 | 9000 Kbps
Аудио JAP: AC-3 | 48000Hz | 192 Kbps | 2ch
General
Complete name : P:\VIDEO_TS\VTS_02_1.VOB
Format : MPEG-PS
File size : 1 024 MiB
Duration : 25mn 54s
Overall bit rate mode : Variable
Overall bit rate : 5 527 Kbps

Video
ID : 224 (0xE0)
Format : MPEG Video
Format version : Version 2
Format profile : Main@Main
Format settings, BVOP : Yes
Format settings, Matrix : Custom
Format settings, GOP : M=3, N=12
Duration : 25mn 54s
Bit rate mode : Variable
Bit rate : 5 225 Kbps
Maximum bit rate : 9 000 Kbps
Width : 720 pixels
Height : 480 pixels
Display aspect ratio : 4:3
Frame rate : 29.970 fps
Standard : NTSC
Color space : YUV
Chroma subsampling : 4:2:0
Bit depth : 8 bits
Scan type : Interlaced
Scan order : Top Field First
Compression mode : Lossy
Bits/(Pixel*Frame) : 0.504
Stream size : 968 MiB (95%)

Audio
ID : 189 (0xBD)-128 (0x80)
Format : AC-3
Format/Info : Audio Coding 3
Mode extension : CM (complete main)
Muxing mode : DVD-Video
Duration : 25mn 53s
Bit rate mode : Constant
Bit rate : 192 Kbps
Channel(s) : 2 channels
Channel positions : Front: L R
Sampling rate : 48.0 KHz
Bit depth : 16 bits
Compression mode : Lossy
Delay relative to video : -66ms
Stream size : 35.6 MiB (3%)

Text
ID : 189 (0xBD)-32 (0x20)
Format : RLE
Format/Info : Run-length encoding
Muxing mode : DVD-Video
Duration : 25mn 49s
Delay relative to video : 3s 971ms
[url=...1005692#23]Чем воспроизводить образ диска формата *.ISO[/url]
Трекер:  [ 30-Дек-2014 22:00 ]

Размер .torrent файла 21 KB


Размер: 2 GB
Хэш (hash) релиза: 5ff66cc67e34b565ea57c8e21d41a4a4f005017f
Подписка на обновления:

Еще никто не оставлял запись к записи скачать торрент Can Can Bunny Extra Can Can Bunny Extra - Lucky 7 . Будь первым!

!Обратная связь
//main.js show_panel