Статистика раздачи
Размер:  2 GB   |    Зарегистрирован:  2 года 11 месяцев   |    .torrent скачан:  102 раза   |   

Пиры будут получены при скачивании

 

Скачать порно Oni Chichi / Demon Father / Похотливый папаша через торрент бесплатно :: UnionPron.org

 
 
Автор Сообщение

Sakura

avatar Sakura


Oni Chichi / Demon Father / 鬼父 / Похотливый папаша

Год производства: 2009 г.
Жанр: Footjob, Oral sex, School, Incest, Rape, Virgin
Серии: ep. 1-2 of 2
Продолжительность: 2х~30 min
Цензура: Есть

Озвучка: Японская (Оригинальная)

Режиссер: Nobitome Youta
Автор оригинала: Blue Gale
Студия: PoRO

Описание RUS: Мать Марины и Айри развелась несколько лет назад и недавно вышла замуж за молодого человека. Хоть Марина и принимает своего нового отчима, Айри ненавидит его. Она знают, что на самом деле он извращенец, что он нюхает их белье и хочет, превратить их в свою собственность, делая любовный препарат, который превратит Марина и Айри в голодных шлюх. Когда Айри приходит домой и замечает ее одноклассницу Сану которая делает ему минет, он использует наркотик на ней. Теперь он будет делать с ними все, что ему заблагорассудится.

Описание ENG: Marina and Airi's mother divorced few years ago and got remarried recently to a young man. While Marina accepts her new stepfather, Airi detests him. Little do they know that really he's a pervert that sniffs their underwear and wants to make them his own by making a love drug that will turn Marina and Airi into a sex-hungry sluts. When Airi comes home and notices her schoolmate Sana giving him a blowjob, he sprays the drug on her. Now he will do with them whatever he pleases.

Информационные ссылки: AniDB - MAL - World Art - ХентайМаг

Качество видео: Blu-Ray
Формат видео: Blu-Ray Video
Видео кодек: H.264/AVC
Аудио кодек: PCM
Видео: 1920х1080, (16:9), 23,976 кадра/сек, ~37 Мбит/сек
Аудио: JAP, PCM, 2 канала, 1536 Кбит/сек, 48,0 КГц
Меню: Отсутствует (хз.)
Общее
Идентификатор : 0 (0x0)
Полное имя : D:\Hentai\Oni Chichi (BDMV)\Oni Chichi (BDMV)\Oni Chichi\BDMV\STREAM\00000.m2ts
Формат : BDAV
Формат/Информация : Blu-ray Video
Размер файла : 8,34 Гбайт
Продолжительность : 29 м.
Режим общего битрейта : Переменный
Общий поток : 41,1 Мбит/сек
Максимальный общий битрейт : 48,0 Мбит/сек

Видео
Идентификатор : 4113 (0x1011)
Идентификатор меню : 1 (0x1)
Формат : AVC
Формат/Информация : Advanced Video Codec
Профиль формата : High@L4.1
Параметр CABAC формата : Да
Параметр ReFrames формата : 4 кадра
Идентификатор кодека : 27
Продолжительность : 29 м.
Вид битрейта : Переменный
Битрейт : 37,9 Мбит/сек
Максимальный битрейт : 40,0 Мбит/сек
Ширина : 1920 пикселей
Высота : 1080 пикселей
Соотношение сторон : 16:9
Частота кадров : 23,976 кадра/сек
Цветовое пространство : YUV
Субдискретизация насыщенности : 4:2:0
Битовая глубина : 8 бит
Тип развёртки : Прогрессивная
Бит/(Пиксели*Кадры) : 0.763
Размер потока : 7,70 Гбайт (92%)

Аудио
Идентификатор : 4352 (0x1100)
Идентификатор меню : 1 (0x1)
Формат : PCM
Параметр Endianness формата : Big
Параметр Sign формата : Signed
Режим смешивания : Blu-ray
Идентификатор кодека : 128
Продолжительность : 29 м.
Вид битрейта : Постоянный
Битрейт : 1536 Кбит/сек
Каналы : 2 канала
Расположение каналов : Front: L R
Частота : 48,0 КГц
Битовая глубина : 16 бит
Размер потока : 319 Мбайт (4%)
[url=...1520953]Там[/url] 2хDVD5 (R2) - Здесь Blu-Ray (R2)
Время раздачи: с 09 до 00.00 (Киев), отдача: 100 кб/с (анальный инет)
1 Большая просьба, помогайте другим скачать (тогда релизов будет больше)
2 Если нет сидов - пишите в лс
3 Если сдохли постеры и скриншоты - пишите в лс
Трекер:  [ 27-Дек-2014 15:30 ]

Размер .torrent файла 45 KB


Размер: 2 GB
Хэш (hash) релиза: 2a80789fd09added2aaf61cc32dc23bd61ca2d39
Подписка на обновления:

Еще никто не оставлял запись к записи скачать торрент Oni Chichi Demon Father . Будь первым!

!Обратная связь
//main.js show_panel