Статистика раздачи
Размер:  2 GB   |    Зарегистрирован:  2 года 3 месяца   |    .torrent скачан:  29 раз   |   

Пиры будут получены при скачивании

 

Скачать порно Hon Ran / Crimson Wolf / Алый Волк / через торрент бесплатно :: UnionPron.org

 
 
Автор Сообщение

Sakura

avatar Sakura


紅狼[ホンラン] | Hon Ran | Crimson Wolf | Алый Волк


Год выпуска: 1993
Страна: Япония
Жанр: action, erotic, violence
Продолжительность: >1 эп. 60 мин.
Субтитры: Отсутствуют
Цензура: Отсутствует
Режиссёр: Masuo Shouichi
Студия: Image Entertainment
Описание:
An archaeological expedition finds the mummified bodies of Genghis Khan and his army somewhere in Mongolia. Unaware that the location is cursed, the explorers wake up the former ruler of the Mongolian empire. He warns the intruders that a large calamity will befall the world in one thousand days. The only ones who can prevent this from happening are three persons who bear wolf-shaped arrow scars. They must join forces and kill the "three emperors" so that the Khan's soul can once again sleep for a thousand years.
Информационные ссылки: AniDB || MAL || World Art || АниМаг
Исходник: DVD-5
Видео: MPEG2 | NTSC | 4x3 | 720x480 | 8000 Kbps
Аудио ENG #1: AC-3 | 48000Hz | 192 Kbps | 2ch
Аудио JAP #2: AC-3 | 48000Hz | 192 Kbps | 2ch
01. OVA
General
Complete name : N:\VIDEO_TS\VTS_01_1.VOB
Format : MPEG-PS
File size : 1 024 MiB
Duration : 16mn 46s
Overall bit rate : 8 533 Kbps

Video
ID : 224 (0xE0)
Format : MPEG Video
Format version : Version 2
Format profile : Main@Main
Format settings, BVOP : Yes
Format settings, Matrix : Custom
Format settings, GOP : M=3, N=12
Format settings, picture structure : Frame
Duration : 16mn 46s
Bit rate : 8 000 Kbps
Width : 720 pixels
Height : 480 pixels
Display aspect ratio : 4:3
Frame rate : 29.970 fps
Standard : NTSC
Color space : YUV
Chroma subsampling : 4:2:0
Bit depth : 8 bits
Scan type : Interlaced
Scan order : Top Field First
Compression mode : Lossy
Bits/(Pixel*Frame) : 0.772
Time code of first frame : 00:59:58:00
Time code source : Group of pictures header
GOP, Open/Closed : Open
Stream size : 957 MiB (94%)
GOP, Open/Closed of first frame : Closed

Audio #1
ID : 189 (0xBD)-128 (0x80)
Format : AC-3
Format/Info : Audio Coding 3
Mode extension : CM (complete main)
Format settings, Endianness : Big
Muxing mode : DVD-Video
Duration : 16mn 46s
Bit rate mode : Constant
Bit rate : 192 Kbps
Channel(s) : 2 channels
Channel positions : Front: L R
Sampling rate : 48.0 KHz
Bit depth : 16 bits
Compression mode : Lossy
Stream size : 23.0 MiB (2%)

Audio #2
ID : 189 (0xBD)-129 (0x81)
Format : AC-3
Format/Info : Audio Coding 3
Mode extension : CM (complete main)
Format settings, Endianness : Big
Muxing mode : DVD-Video
Duration : 16mn 46s
Bit rate mode : Constant
Bit rate : 192 Kbps
Channel(s) : 2 channels
Channel positions : Front: L R
Sampling rate : 48.0 KHz
Bit depth : 16 bits
Compression mode : Lossy
Stream size : 23.0 MiB (2%)
[url=...1005692#23]Чем воспроизводить образ диска формата *.ISO[/url]
Трекер:  [ 25-Дек-2014 21:00 ]

Размер .torrent файла 18 KB


Размер: 2 GB
Хэш (hash) релиза: aed875e71bd261f734d6d2d1ebd93a9cce696524
Подписка на обновления:

Еще никто не оставлял запись к записи скачать торрент Hon Ran Crimson Wolf . Будь первым!

!Обратная связь
//main.js show_panel